img image001 image001 image001 image001 image001 image001 image001 image001 image001 image001 image001 image001 image001 image001 image001

Planets Sun Sun Sun
Статистика раздачи
Автор: PriZraK | Размер: 9 ГБ | Добавлен: 15 фев 2014
Раздают: 1    Качают: 2
Скачать торрент
Скачать торрент
Описание торрента

СообщениеДобавлено: 15 фев 2014 

Информация о фильме
Название: Неизвестная Мэрилин
Оригинальное название: Love, Marilyn
Год выхода: 2012
Жанр: Документальный, биография
Режиссер: Лиз Гарбус
В ролях: Элизабет Бэнкс, Ума Турман, Эллен Берстин, Гленн Клоуз, Виола Дэвис, Дженнифер Эль, Линдсей Лохан, Лили Тейлор, Мариса Томей, Эван Рейчел Вуд

О фильме:
Документальный фильм "Неизвестная Мэрилин" режиссера Лиз Гарбус рассказывает о секс-символе Америки - Мэрилин Монро, которая и до сих пор вызывает зависть у многих женщин и будоражит сердца мужчин. Яркая, неординарная личность, она прожила короткую, но насыщенную жизнь. Ее любили и ненавидели, ее боготворили и завидовали. Она утопала в роскоши, она имела многочисленных поклонников и поклонниц. В этой картине, построенной на личных дневниках, письмах и стихах, которые прежде никогда не были достоянием широкой общественности, раскрывается личная жизнь актрисы, а также публичная жизнь кинозвезды. В фильме принимали участие такие современные актрис, как Элизабет Бэнкс, Ума Турман, Эллен Берстин, Гленн Клоуз, Виола Дэвис, Дженнифер Эль, Линдсей Лохан, Лили Тейлор, Мариса Томей, Эван Рейчел Вуд, которые говорят о влиянии Мэрилин Монро на их жизни.

Страна: США, Франция
Студия: Studiocanal
Продолжительность: 01:43:04
Перевод: Профессиональный двухголосый

Файл
Кодек: x264
Качество: HDTVRip 1080p
Видео: MPEG-4 AVC,12,3 Мбит/сек, 1920x1072, 24.000 кадр/с
Звук: Русский (AC3, 2 ch, 256 Кбит/с)

Семпл
Формат : Matroska
Версия формата : Version 2
Размер файла : 9,00 Гбайт
Продолжительность : 1 ч. 43 м.
Общий поток : 12,5 Мбит/сек
Название фильма : Release for MediaClub by AlexAndr92
Дата кодирования : UTC 2013-11-03 14:02:32
Программа кодирования : mkvmerge v4.0.0 ('The Stars were mine') сборка от Jun 6 2010 16:18:42
Библиотека кодирования : libebml v1.0.0 + libmatroska v1.0.0

Видео
Идентификатор : 1
Формат : AVC
Формат/Информация : Advanced Video Codec
Профиль формата : High@L4.1
Параметр CABAC формата : Да
Параметр ReFrames формата : 4 кадра
Идентификатор кодека : V_MPEG4/ISO/AVC
Продолжительность : 1 ч. 43 м.
Битрейт : 12,3 Мбит/сек
Ширина : 1920 пикселей
Высота : 1072 пикселя
Соотношение сторон : 16:9
Режим частоты кадров : Постоянный
Частота кадров : 24,000 кадра/сек
Цветовое пространство : YUV
Субдискретизация насыщенности : 4:2:0
Битовая глубина : 8 бит
Тип развёртки : Прогрессивная
Бит/(Пиксели*Кадры) : 0.248
Размер потока : 8,64 Гбайт (96%)
Библиотека кодирования : x264 core 130 r2273 b3065e6
Настройки программы : cabac=1 / ref=4 / deblock=1:-3:-3 / analyse=0x3:0x133 / me=umh / subme=11 / psy=1 / psy_rd=1.00:0.15 / mixed_ref=1 / me_range=32 / chroma_me=1 / trellis=2 / 8x8dct=1 / cqm=0 / deadzone=21,11 / fast_pskip=0 / chroma_qp_offset=-3 / threads=6 / lookahead_threads=1 / sliced_threads=0 / nr=0 / decimate=0 / interlaced=0 / bluray_compat=0 / constrained_intra=0 / bframes=8 / b_pyramid=2 / b_adapt=2 / b_bias=0 / direct=3 / weightb=1 / open_gop=0 / weightp=2 / keyint=240 / keyint_min=24 / scenecut=40 / intra_refresh=0 / rc=2pass / mbtree=0 / bitrate=12250 / ratetol=1.0 / qcomp=0.60 / qpmin=0 / qpmax=69 / qpstep=4 / cplxblur=20.0 / qblur=0.5 / ip_ratio=1.40 / pb_ratio=1.30 / aq=1:1.00
Default : Нет
Forced : Нет

Аудио
Идентификатор : 2
Формат : AC-3
Формат/Информация : Audio Coding 3
Расширение режима : CM (complete main)
Параметр Endianness формата : Big
Идентификатор кодека : A_AC3
Продолжительность : 1 ч. 43 м.
Вид битрейта : Постоянный
Битрейт : 256 Кбит/сек
Каналы : 2 канала
Расположение каналов : Front: L R
Частота : 48,0 КГц
Битовая глубина : 16 бит
Метод сжатия : С потерями
Размер потока : 189 Мбайт (2%)
Default : Нет
Forced : Нет



Релиз от: | AlexAndr92



   Похожие торренты   Торрент   Размер 
В этой теме нет новых непрочитанных сообщений. Неизвестная Мэрилин / Love, Marilyn (2012) HDTVRip от MediaClub | P2

18 | 5

1.33 ГБ

В этой теме нет новых непрочитанных сообщений. Неизвестная Мэрилин / Love, Marilyn (2012) DVDRip от Pshichko66

229 | 25

1.45 ГБ

В этой теме нет новых непрочитанных сообщений. Неизвестная Мэрилин / Love, Marilyn (2012) DVD9 R5 от New-Team | P | лицензия

0 | 3

6.91 ГБ

В этой теме нет новых непрочитанных сообщений. Мэрилин Мэнсон - Порочная Любовь / Marilyn Manson - Tainted Love (2001) WEBRip 1080p

25 | 3

237.17 МБ

В этой теме нет новых непрочитанных сообщений. 7 дней и ночей с Мэрилин / My Week with Marilyn (2011) BDRip 1080p

3 | 1

8.15 ГБ

В этой теме нет новых непрочитанных сообщений. 7 дней и ночей с Мэрилин / My Week with Marilyn (2011) BDRip 1080p от R.G. GoldenShara

5 | 1

4.36 ГБ

В этой теме нет новых непрочитанных сообщений. 7 дней и ночей с Мэрилин / My Week with Marilyn (2011) Blu-Ray Remux 1080p | Лицензия

0 | 2

20.12 ГБ




Вы не можете начинать темы
Вы не можете отвечать на сообщения
Вы не можете редактировать свои сообщения
Вы не можете удалять свои сообщения
Вы не можете добавлять вложения

Перейти:  
Для Мосгорсуда, Роскомнадзора и рекламодателей: mosgorsud-torrent[собачка]yandex.ru
 Вход
ppkBB3cker v.2 © 2008-2014 @ PPK
[ Time : 0.038s | 16 Queries | GZIP : Off ]

Торрент трекер RUTOR.IN, Не можете зайти на rutor.org? Какой новый адрес рутор? Какое зеркало рутор? Не работает rutor.org и зеркала? Тогда наш торрент специально для вас. Rutor.in неофициальное зеркало rutor. В случае если у Вас заблокирован rutor или вдруг Вы не можете на него зайти, то Вы без труда сможете скачать бесплатно и без рекламы последние новинки кино, игр, сериалов и прочего у нас, на Rutor.in. Не нужно использовать прокси, чтобы зайти на рутор, достаточно воспользоваться нашим ресурсом. Все новые фильмы, игры, сериалы, книги и музыка за 2013 и 2014 годы через торрент бесплатно. Скачивайте фильмы в хорошем качестве, игры для пк, xbox, playstation без регистрации. У нас вы найдете новые Зарубежные сериалы и Русские сериалы 2013, 2014, 2015 годов. Оставайтесь с нами, качайте любимые фильмы, игры, сериалы, книги и музыку.
cron