img image001 image001 image001 image001 image001 image001 image001 image001 image001 image001 image001 image001 image001 image001 image001

Planets Sun Sun Sun
Статистика раздачи
Автор: PriZraK | Размер: 6.72 ГБ | Добавлен: 15 фев 2014
Раздают: 0    Качают: 8
Скачать торрент
Скачать торрент
Описание торрента

СообщениеДобавлено: 15 фев 2014 

Шоу Куб (The Cube). Второй сезон. Выпуск 01-08 (Из ??)
Год выпуска: 2013
Страна: Россия
Жанр: Тв-шоу
Продолжительность: 01:00:00 / выпуск
Перевод: Не требуется
Русские субтитры: нет

Описание: Необычный проект, героям которого предстоит пройти испытания в замкнутом пространстве. Каждый участник должен войти внутрь стеклянного Куба и выполнить 7 заданий разной степени сложности. Наградой победителю будет внушительная сумма – 3 миллиона рублей. Стальная выдержка, скорость реакции, смекалка и непреодолимая воля к победе – все это понадобится участникам для достижения заветной цели. Задания кажутся довольно простыми, но чтобы выйти из Куба победителем, необходимо приложить максимум усилий. Каждый этап игры имеет свою стоимость – чем сложнее задание, тем выше его материальный эквивалент. У игрока 9 «жизней», за любой промах он теряет одну «жизнь». Перейти к следующему этапу герой может, только выполнив предыдущее задание. Пока игра продолжается, участник может в любой момент забрать выигранные уже деньги и уйти из студии. Потеряв все «жизни», игрок покидает Куб ни с чем, теряя все накопленные к этому моменту деньги. Главным соперником участника в игре является Куб. Это не просто декорация, а серьезный противник. Именно Куб назначает задание и оценивает игрока. Один раз за игру Куб дарит участнику пробную попытку и один раз дает возможность упростить задание. На этом послабления заканчиваются. Во всем остальном Куб непреклонен и забирает у игрока «жизни», даже если для прохождения испытания герою не хватило одной секунды. Вместе с игроком в студию приходит группа поддержки. Друзья и родственники участника следят за ходом игры со стороны и могут увидеть, какие ошибки мешают ему пройти испытание. Они могут давать советы, но только в перерывах между турами. Если во время испытания из зала будут доноситься подсказки, Куб лишит участника одной из «жизней».

Источник: собственный рип

Доп. информация: Релиз -


Рип чистый. Без посторонних надписей. Выкладывается как есть.

Качество: HDTVRip
Формат: AVI
Видео кодек: XVID
Аудио кодек: MP3
Видео: 720x400 (16:9) 25.000 fps 2 100 Kbps, 0.290 bit/pixel
Аудио: MPEG Audio, 48000Hz, 2 channels, 192 Кбит/сек









General
Complete name : D:ВыкладкаШоу Куб (The Cube). Второй сезон (2013, Тв-шоу, HDTVRip)1 выпуск (Эфир 14.09.2013) (2013, Тв-шоу, HDTV 1080i) (MYDIMKA).avi
Format : AVI
Format/Info : Audio Video Interleave
File size : 988 MiB
Duration : 1h 0mn
Overall bit rate : 2 289 Kbps
Writing application : VirtualDubMod 1.5.10.3 | www.virtualdub-fr.org || (build 2550/release)
Writing library : VirtualDubMod build 2550/release

Video
ID : 0
Format : MPEG-4 Visual
Format profile : Advanced Simple@L5
Format settings, BVOP : 2
Format settings, QPel : No
Format settings, GMC : No warppoints
Format settings, Matrix : Default (H.263)
Muxing mode : Packed bitstream
Codec ID : XVID
Codec ID/Hint : XviD
Duration : 1h 0mn
Bit rate : 2 087 Kbps
Width : 720 pixels
Height : 400 pixels
Display aspect ratio : 16:9
Frame rate : 25.000 fps
Color space : YUV
Chroma subsampling : 4:2:0
Bit depth : 8 bits
Scan type : Progressive
Compression mode : Lossy
Bits/(Pixel*Frame) : 0.290
Stream size : 901 MiB (91%)
Writing library : XviD 1.2.1 (UTC 2008-12-04)

Audio
ID : 1
Format : MPEG Audio
Format version : Version 1
Format profile : Layer 3
Codec ID : 55
Codec ID/Hint : MP3
Duration : 1h 0mn
Bit rate mode : Constant
Bit rate : 192 Kbps
Channel count : 2 channels
Sampling rate : 48.0 KHz
Compression mode : Lossy
Stream size : 82.9 MiB (8%)
Alignment : Aligned on interleaves
Interleave, duration : 40 ms (1.00 video frame)
Interleave, preload duration : 504 ms
Writing library : LAME3.99r
Encoding settings : -m s -V 4 -q 2 -lowpass 18.6 -b 192



   Похожие торренты   Торрент   Размер 
В этой теме нет новых непрочитанных сообщений. Легкая атлетика. Бриллиантовая Лига 2013 / Diamond League 2013. Этап 04. Юджин (США) (2013) HDTVRip

0 | 1

2.19 ГБ

В этой теме нет новых непрочитанных сообщений. Легкая атлетика. Бриллиантовая Лига 2013 / Diamond League 2013. Этап 03. Нью-Йорк (США) (2013) HDTVRip

0 | 1

1.82 ГБ

В этой теме нет новых непрочитанных сообщений. Новая волна-2013. Первый конкурсный день. Мировой хит (эфир от 2013.07.24) (2013) HDTVRip от MediaClub

17 | 2

1.74 ГБ

В этой теме нет новых непрочитанных сообщений. Легкая атлетика. Бриллиантовая Лига 2013 / Diamond League 2013. Этап 05. Рим (Италия) (2013) HDTVRip

1 | 2

1.88 ГБ

В этой теме нет новых непрочитанных сообщений. Легкая атлетика. Бриллиантовая Лига 2013 / Diamond League 2013. Этап 03. Нью-Йорк (США) (2013) HDTVRip 720p

0 | 1

3.3 ГБ

В этой теме нет новых непрочитанных сообщений. Легкая атлетика. Бриллиантовая Лига 2013 / Diamond League 2013. Этап 01. Доха (Катар) (2013) HDTVRip

0 | 1

1.82 ГБ

В этой теме нет новых непрочитанных сообщений. Легкая атлетика. Бриллиантовая Лига 2013 / Diamond League 2013. Этап 14. Брюссель (Бельгия) (2013) HDTVRip

0 | 1

1.87 ГБ




Вы не можете начинать темы
Вы не можете отвечать на сообщения
Вы не можете редактировать свои сообщения
Вы не можете удалять свои сообщения
Вы не можете добавлять вложения

Перейти:  
Для Мосгорсуда, Роскомнадзора и рекламодателей: mosgorsud-torrent[собачка]yandex.ru
 Вход
ppkBB3cker v.2 © 2008-2014 @ PPK
[ Time : 0.026s | 14 Queries | GZIP : On ]

Торрент трекер RUTOR.IN, Не можете зайти на rutor.org? Какой новый адрес рутор? Какое зеркало рутор? Не работает rutor.org и зеркала? Тогда наш торрент специально для вас. Rutor.in неофициальное зеркало rutor. В случае если у Вас заблокирован rutor или вдруг Вы не можете на него зайти, то Вы без труда сможете скачать бесплатно и без рекламы последние новинки кино, игр, сериалов и прочего у нас, на Rutor.in. Не нужно использовать прокси, чтобы зайти на рутор, достаточно воспользоваться нашим ресурсом. Все новые фильмы, игры, сериалы, книги и музыка за 2013 и 2014 годы через торрент бесплатно. Скачивайте фильмы в хорошем качестве, игры для пк, xbox, playstation без регистрации. У нас вы найдете новые Зарубежные сериалы и Русские сериалы 2013, 2014, 2015 годов. Оставайтесь с нами, качайте любимые фильмы, игры, сериалы, книги и музыку.