img image001 image001 image001 image001 image001 image001 image001 image001 image001 image001 image001 image001 image001 image001 image001

Planets Sun Sun Sun
Статистика раздачи
Автор: PriZraK | Размер: 1.33 ГБ | Добавлен: 15 фев 2014
Раздают: 18    Качают: 5
Скачать торрент
Скачать торрент
Описание торрента

СообщениеДобавлено: 15 фев 2014 

Информация о фильме
Название: Неизвестная Мэрилин
Оригинальное название: Love, Marilyn
Год выхода: 2012
Жанр: Документальный, биография
Режиссер: Лиз Гарбус
В ролях: Элизабет Бэнкс, Ума Турман, Эллен Берстин, Гленн Клоуз, Виола Дэвис, Дженнифер Эль, Линдсей Лохан, Лили Тейлор, Мариса Томей, Эван Рейчел Вуд

О фильме:
Документальный фильм "Неизвестная Мэрилин" режиссера Лиз Гарбус рассказывает о секс-символе Америки - Мэрилин Монро, которая и до сих пор вызывает зависть у многих женщин и будоражит сердца мужчин. Яркая, неординарная личность, она прожила короткую, но насыщенную жизнь. Ее любили и ненавидели, ее боготворили и завидовали. Она утопала в роскоши, она имела многочисленных поклонников и поклонниц. В этой картине, построенной на личных дневниках, письмах и стихах, которые прежде никогда не были достоянием широкой общественности, раскрывается личная жизнь актрисы, а также публичная жизнь кинозвезды. В фильме принимали участие такие современные актрис, как Элизабет Бэнкс, Ума Турман, Эллен Берстин, Гленн Клоуз, Виола Дэвис, Дженнифер Эль, Линдсей Лохан, Лили Тейлор, Мариса Томей, Эван Рейчел Вуд, которые говорят о влиянии Мэрилин Монро на их жизни.

Страна: США, Франция
Студия: Studiocanal
Продолжительность: 01:43:04
Перевод: Профессиональный двухголосый

Файл
Кодек: XviD
Качество: HDTVRip
Видео: XviD, 1705 Кбит/с, 704x392
Звук: Русский (MP3, 2 ch, 128 Кбит/с)
Формат/Информация : Audio Video Interleave
Размер файла : 1,33 Гбайт
Продолжительность : 1 ч. 43 м.
Общий поток : 1843 Кбит/сек
Программа кодирования : VirtualDubMod 1.5.10.3 | www.virtualdub-fr.org || (build 2550/release)
Библиотека кодирования : VirtualDubMod build 2550/release

Видео
Идентификатор : 0
Формат : MPEG-4 Visual
Профиль формата : Advanced Simple@L5
Параметр BVOP формата : 2
Параметр QPel формата : Нет
Параметр GMC формата : Без точки перехода
Параметр матрицы формата : Default (H.263)
Идентификатор кодека : XVID
Идентификатор кодека/Подсказка : XviD
Продолжительность : 1 ч. 43 м.
Битрейт : 1705 Кбит/сек
Ширина : 704 пикселя
Высота : 392 пикселя
Соотношение сторон : 16:9
Частота кадров : 24,000 кадра/сек
Цветовое пространство : YUV
Субдискретизация насыщенности : 4:2:0
Битовая глубина : 8 бит
Тип развёртки : Прогрессивная
Метод сжатия : С потерями
Бит/(Пиксели*Кадры) : 0.257
Размер потока : 1,23 Гбайт (93%)
Библиотека кодирования : XviD 1.2.1 (UTC 2008-12-04)

Аудио
Идентификатор : 1
Формат : MPEG Audio
Версия формата : Version 1
Профиль формата : Layer 3
Идентификатор кодека : 55
Идентификатор кодека/Подсказка : MP3
Продолжительность : 1 ч. 43 м.
Вид битрейта : Постоянный
Битрейт : 128 Кбит/сек
Каналы : 2 канала
Частота : 48,0 КГц
Метод сжатия : С потерями
Размер потока : 94,4 Мбайт (7%)
Выравнивание : Соединение по промежуткам
Продолжительность промежутка : 42 мс. (1,00 видеокадр)
Время предзагрузки промежутка : 504 мс.
Библиотека кодирования : LAME3.99r
Настройки программы : -m s -V 4 -q 2 -lowpass 17 -b 128






Релиз от: | AlexAndr92



   Похожие торренты   Торрент   Размер 
В этой теме нет новых непрочитанных сообщений. Неизвестная Мэрилин / Love, Marilyn (2012) HDTVRip 1080p от MediaClub | P2

1 | 2

9 ГБ

В этой теме нет новых непрочитанных сообщений. Неизвестная Мэрилин / Love, Marilyn (2012) DVDRip от Pshichko66

229 | 25

1.45 ГБ

В этой теме нет новых непрочитанных сообщений. Неизвестная Мэрилин / Love, Marilyn (2012) DVD9 R5 от New-Team | P | лицензия

0 | 2

6.91 ГБ

В этой теме нет новых непрочитанных сообщений. Мэрилин Мэнсон - Порочная Любовь / Marilyn Manson - Tainted Love (2001) WEBRip 1080p

55 | 6

237.17 МБ

В этой теме нет новых непрочитанных сообщений. Тайная жизнь Мэрилин Монро / The Secret Life of Marilyn Monroe [01-05 из 05] (2015) HDTVRip | L1

72 | 19

2.43 ГБ

В этой теме нет новых непрочитанных сообщений. Мэрилин и я / Io & Marilyn (2009) DVDRip от iFilmsGroup

1 | 2

698.84 МБ

В этой теме нет новых непрочитанных сообщений. Мэрилин и я / Io & Marilyn (2009) DVDRip | Лицензия

1 | 1

1.46 ГБ




Вы не можете начинать темы
Вы не можете отвечать на сообщения
Вы не можете редактировать свои сообщения
Вы не можете удалять свои сообщения
Вы не можете добавлять вложения

Перейти:  
Для Мосгорсуда, Роскомнадзора и рекламодателей: mosgorsud-torrent[собачка]yandex.ru
 Вход
ppkBB3cker v.2 © 2008-2014 @ PPK
[ Time : 0.038s | 15 Queries | GZIP : On ]

Торрент трекер RUTOR.IN, Не можете зайти на rutor.org? Какой новый адрес рутор? Какое зеркало рутор? Не работает rutor.org и зеркала? Тогда наш торрент специально для вас. Rutor.in неофициальное зеркало rutor. В случае если у Вас заблокирован rutor или вдруг Вы не можете на него зайти, то Вы без труда сможете скачать бесплатно и без рекламы последние новинки кино, игр, сериалов и прочего у нас, на Rutor.in. Не нужно использовать прокси, чтобы зайти на рутор, достаточно воспользоваться нашим ресурсом. Все новые фильмы, игры, сериалы, книги и музыка за 2013 и 2014 годы через торрент бесплатно. Скачивайте фильмы в хорошем качестве, игры для пк, xbox, playstation без регистрации. У нас вы найдете новые Зарубежные сериалы и Русские сериалы 2013, 2014, 2015 годов. Оставайтесь с нами, качайте любимые фильмы, игры, сериалы, книги и музыку.