img image001 image001 image001 image001 image001 image001 image001 image001 image001 image001 image001 image001 image001 image001 image001

Planets Sun Sun Sun
Статистика раздачи
Автор: PriZraK | Размер: 406.03 МБ | Добавлен: 15 фев 2014
Раздают: 0    Качают: 2
Скачать торрент
Скачать торрент
Описание торрента

СообщениеДобавлено: 15 фев 2014 

Страна: Украина
Производство: телеканал "Интер"
Жанр: Документальный, ВОВ, история, военный, кинохроники
Год выпуска: 2013

Продолжительность: 00:42:42

Язык: Русский

Описание: Посвященный 70-летию со дня освобождения Киева от немецко-фашистских захватчиков 6 ноября 1943 года, фильм рассказывает об одном из самых жестоких сражений Великой Отечественной войны - битве за освобождение Киева.

Тип релиза: TVRip

Контейнер: AVI

Видео: 688x384 (1.79:1), 23.976 fps, XviD ~1127 kbps avg, 0.18 bit/pixel
Аудио: 48 kHz, 2.0 ~192.00 kbps avg
Общее
Полное имя : D:1АААБитва за Киев.avi
Формат : AVI
Формат/Информация : Audio Video Interleave
Размер файла : 406 Мбайт
Продолжительность : 42 м.
Общий поток : 1329 Кбит/сек
Программа кодирования : VirtualDubMod 1.5.10.3 | www.virtualdub-fr.org || (build 2550/release)
Библиотека кодирования : VirtualDubMod build 2550/release

Видео
Идентификатор : 0
Формат : MPEG-4 Visual
Профиль формата : Advanced Simple@L5
Параметр BVOP формата : 2
Параметр QPel формата : Нет
Параметр GMC формата : Без точки перехода
Параметр матрицы формата : Default (H.263)
Режим смешивания : Сжатый битовый поток
Идентификатор кодека : XVID
Идентификатор кодека/Подсказка : XviD
Продолжительность : 42 м.
Битрейт : 1128 Кбит/сек
Ширина : 688 пикселей
Высота : 384 пикселя
Соотношение сторон : 16:9
Частота кадров : 23,976 кадра/сек
Цветовое пространство : YUV
Субдискретизация насыщенности : 4:2:0
Битовая глубина : 8 бит
Тип развёртки : Прогрессивная
Метод сжатия : С потерями
Бит/(Пиксели*Кадры) : 0.178
Размер потока : 345 Мбайт (85%)
Библиотека кодирования : XviD 1.2.1 (UTC 2008-12-04)

Аудио
Идентификатор : 1
Формат : MPEG Audio
Версия формата : Version 1
Профиль формата : Layer 2
Идентификатор кодека : 50
Продолжительность : 42 м.
Вид битрейта : Постоянный
Битрейт : 192 Кбит/сек
Каналы : 2 канала
Частота : 48,0 КГц
Метод сжатия : С потерями
Размер потока : 58,6 Мбайт (14%)
Выравнивание : Соединение по промежуткам
Продолжительность промежутка : 42 мс. (1,00 видеокадр)
Время предзагрузки промежутка : 504 мс.





Релиз группа:

Автор рипа:



   Похожие торренты   Торрент   Размер 
В этой теме нет новых непрочитанных сообщений. Футбол. Чемпионат Украины 2013/14. 13-й тур. Арсенал (Киев) - Динамо (Киев) (2013) IPTVRip

0 | 2

1.53 ГБ

В этой теме нет новых непрочитанных сообщений. Битва в Арденнах / Битва за выступ / Battle of the Bulge (1965) HDRip от NovaLan

130 | 31

2.91 ГБ

В этой теме нет новых непрочитанных сообщений. Вечерний Киев / Киев вечерний [01-20] (2012-2013) IPTVRip

7 | 10

22.59 ГБ

В этой теме нет новых непрочитанных сообщений. Футбол. Кубок Украины 2010/11. Финал. Динамо (Киев) - Шахтёр (Донецк) (2011) TVRip

0 | 3

1.69 ГБ

В этой теме нет новых непрочитанных сообщений. Смешанные единоборства. Битва под Москвой 11 [Россия 2] [Эфир от 20.04] (2013) TVRip

0 | 14

1.56 ГБ

В этой теме нет новых непрочитанных сообщений. Покер. Российская Покерная Серия / Russian Poker Series – RPS [Эпизод 1-9. Гранд-Финал. Рига, Киев] (2010) TVRip

3 | 3

3.37 ГБ

В этой теме нет новых непрочитанных сообщений. Футбол. Лига Чемпионов 1997-1998. Барселона (Испания) - Динамо (Киев) (1998) TVRip

0 | 4

624.86 МБ




Вы не можете начинать темы
Вы не можете отвечать на сообщения
Вы не можете редактировать свои сообщения
Вы не можете удалять свои сообщения
Вы не можете добавлять вложения

Перейти:  
Для Мосгорсуда, Роскомнадзора и рекламодателей: mosgorsud-torrent[собачка]yandex.ru
 Вход
ppkBB3cker v.2 © 2008-2014 @ PPK
[ Time : 0.036s | 16 Queries | GZIP : Off ]

Торрент трекер RUTOR.IN, Не можете зайти на rutor.org? Какой новый адрес рутор? Какое зеркало рутор? Не работает rutor.org и зеркала? Тогда наш торрент специально для вас. Rutor.in неофициальное зеркало rutor. В случае если у Вас заблокирован rutor или вдруг Вы не можете на него зайти, то Вы без труда сможете скачать бесплатно и без рекламы последние новинки кино, игр, сериалов и прочего у нас, на Rutor.in. Не нужно использовать прокси, чтобы зайти на рутор, достаточно воспользоваться нашим ресурсом. Все новые фильмы, игры, сериалы, книги и музыка за 2013 и 2014 годы через торрент бесплатно. Скачивайте фильмы в хорошем качестве, игры для пк, xbox, playstation без регистрации. У нас вы найдете новые Зарубежные сериалы и Русские сериалы 2013, 2014, 2015 годов. Оставайтесь с нами, качайте любимые фильмы, игры, сериалы, книги и музыку.