img image001 image001 image001 image001 image001 image001 image001 image001 image001 image001 image001 image001 image001 image001 image001

Planets Sun Sun Sun
Статистика раздачи
Автор: PriZraK | Размер: 23.44 ГБ | Добавлен: 15 фев 2014
Раздают: 9    Качают: 78
Скачать торрент
Скачать торрент
Описание торрента

СообщениеДобавлено: 15 фев 2014 

Германская головоломка. Серии 01-08 (Из 08)

Год выпуска: 2013
Страна: Россия
Студия: Первый канал
Жанр: Документальный
Продолжительность: 00:47:00 / серия
Перевод: Не требуется
Русские субтитры: нет

Описание: Автор фильма Владимир Познер: "Это был самый сложный для меня фильм. Несравненно сложнее, чем все остальные". Германия связана у меня прежде всего с детскими воспоминаниями. Я - военный ребенок. Помню бомбежки Парижа, моего деда расстреляли немцы, помню оккупацию Парижа, мы бежали из Франции после войны. Когда мне было лет 12, мой отец показал мне те документальные ленты, которые фигурировали на Нюрнбергском процессе. Немцы не просто убивали, они фиксировали процесс на пленку. У нас тоже убили черт-те сколько людей в лагерях, но никому не приходило в голову это снимать и фиксировать как некий опыт. Эти фильмы вызвали у меня чувство ужаса. В детстве я ненавидел немцев и вместе с ними ненавидел Германию. Мне пришлось там прожить 4 года с 1948 по 1952 год, это были самые тяжелые годы моей жизни. Я думал, что в Германию ногой не ступлю, но моя дочь вышла замуж за немца, живет в Берлине, там родился мой внук. Естественно, я ездил к ним. Этот фильм – моя попытка разобраться в себе и в том, кто такие немцы. Во время съемок я много ездил по Германии, бывал в самых разных местах. Берлин – интернациональный город. Там приятно, относительно мало высоких зданий, очень много зелени и старых зданий в стиле модерн. Вообще Германия, конечно, сказочная страна. Деревушки, небольшие города, как из сказки братьев Гримм. Поразительная чистота, порядок, поразительно все устроено. Пожалуй, меньше других городов мне понравился Мюнхен. Для меня он больше пахнет теми годами репрессий. Это мое личное восприятие. Мюнхен и Бавария в большей степени, чем другие регионы Германии, ассоциируются у меня с теми годами. Был я на Октоберфесте, где ревущие толпы пьяных и полупьяных немцев стреляют в финале из мушкетов. А вот Гамбург – совсем другая Германия. Вообще, конечно, нельзя не восхищаться местными достижениями, точностью, дотошностью. С одной стороны, дотошность вроде хорошее качество. И порядок – вещь хорошая. Но когда порядок переходит в чинопочитание – меня это не очень радует. Разговор с немцем отличается прямотой и даже резкостью. Ты получаешь ответ прямой и жесткий. Например, если некрасивая женщина спросит у немца: "А правда, я хороша или нет?" - немец ответит "Нет". Француз ответил бы: "Ну, разумеется, хороша!". Англичанин тоже нашелся бы, как ответить, чтобы не обижать девушку. Немец ответит: "Нет". О себе и своем прошлом немцы тоже говорят резко. Это, конечно, тоже производит впечатление. Мы были в Дахау – самом первом концлагере. Там ничего не осталось, кроме четырех печей и длинного кирпичного здания, в котором есть окна. На фото времен войны в здании свалены трупы, а на подоконниках стоят горшки с цветами. Я спросил у немцев, ведь есть же какой-то невероятный диссонанс между трупами и этими горшками? Местные жители не сразу меня поняли, мне ответили: "Такой был приказ". Хочу сказать, что это очень эмоциональная для меня картина. Это не роад муви с описанием местной кухни, обычаев и достопримечательностей. Я снимал этот фильм, чтобы избавиться от той тяжести, которая связана у меня с детских лет с Германией. И да, Урганта здесь меньше, чем в других фильмах. Съемки совпали с его почти ежедневными съемками "Вечернего Урганта", он смог приезжать только наскоками.

Источник: собственный рип

Доп. информация: Релиз -


Рип чистый. Без посторонних надписей. Выкладывается как есть.

Качество: HDTV 1080i
Контейнер: TS
Видео кодек: AVC
Аудио кодек: MP2
Видео: 1920x1080 (16:9) 25.000 fps 8 627 Kbps, 0.166 bit/pixel
Аудио: MPEG Audio 48000Hz stereo 192 Кбит/сек




GeneralID : 1 (0x1)Complete name : F:ВЫКЛАДКАГерманская головоломка (2013, Документальный, HDTV 1080i) (MYDIMKA)1 серия.tsFormat : MPEG-TSFile size : 3.08 GiBDuration : 47mn 38sOverall bit rate mode : VariableOverall bit rate : 9 254 Kbps

VideoID : 101 (0x65)Menu ID : 1 (0x1)Format : AVCFormat/Info : Advanced Video CodecFormat profile : High@L4.0Format settings, CABAC : YesFormat settings, ReFrames : 3 framesCodec ID : 27Duration : 47mn 38sBit rate : 8 603 KbpsWidth : 1 920 pixelsHeight : 1 080 pixelsDisplay aspect ratio : 16:9Frame rate : 25.000 fpsStandard : ComponentColor space : YUVChroma subsampling : 4:2:0Bit depth : 8 bitsScan type : InterlacedScan order : Top Field FirstBits/(Pixel*Frame) : 0.166Stream size : 2.86 GiB (93%)Color primaries : BT.709Transfer characteristics : BT.709Matrix coefficients : BT.709

AudioID : 110 (0x6E)Menu ID : 1 (0x1)Format : MPEG AudioFormat version : Version 1Format profile : Layer 2Codec ID : 3Duration : 47mn 38sBit rate mode : ConstantBit rate : 192 KbpsChannel count : 2 channelsSampling rate : 48.0 KHzCompression mode : LossyStream size : 65.4 MiB (2%)Language : Russian



   Похожие торренты   Торрент   Размер 
В этой теме нет новых непрочитанных сообщений. Германская головоломка [Серии 01-08] (2013) HDTVRip

341 | 34

5.28 ГБ

В этой теме нет новых непрочитанных сообщений. Не покидай меня [01-04 серии из 04] (2013) HDTV 1080i

28 | 10

16.5 ГБ

В этой теме нет новых непрочитанных сообщений. Романовы. Царское дело [01-05 серии из 05] (2013) HDTV 1080i от MediaClub

50 | 2

11.53 ГБ

В этой теме нет новых непрочитанных сообщений. Ищейка / Своя-чужая (01-02 серии из 16) / 2015 / РУ / HDTV (1080i)

46 | 19

21.79 ГБ

В этой теме нет новых непрочитанных сообщений. Ищейка / Своя-чужая (01-02 серии из 16) / 2015 / РУ / HDTV (1080i)

10 | 0

10.84 ГБ

В этой теме нет новых непрочитанных сообщений. Наука 2.0. Приключение тела. Испытание [01-08 серии] (2012) HDTV 1080i

39 | 46

13.19 ГБ

В этой теме нет новых непрочитанных сообщений. Фигурное катание. Финал серии Гран-при по фигурному катанию - 2015. Барселона (Испания) [10-11.12] (2015) HDTV 1080i

0 | 0

40.34 ГБ




Вы не можете начинать темы
Вы не можете отвечать на сообщения
Вы не можете редактировать свои сообщения
Вы не можете удалять свои сообщения
Вы не можете добавлять вложения

Перейти:  
Для Мосгорсуда, Роскомнадзора и рекламодателей: mosgorsud-torrent[собачка]yandex.ru
 Вход
ppkBB3cker v.2 © 2008-2014 @ PPK
[ Time : 0.047s | 14 Queries | GZIP : Off ]

Торрент трекер RUTOR.IN, Не можете зайти на rutor.org? Какой новый адрес рутор? Какое зеркало рутор? Не работает rutor.org и зеркала? Тогда наш торрент специально для вас. Rutor.in неофициальное зеркало rutor. В случае если у Вас заблокирован rutor или вдруг Вы не можете на него зайти, то Вы без труда сможете скачать бесплатно и без рекламы последние новинки кино, игр, сериалов и прочего у нас, на Rutor.in. Не нужно использовать прокси, чтобы зайти на рутор, достаточно воспользоваться нашим ресурсом. Все новые фильмы, игры, сериалы, книги и музыка за 2013 и 2014 годы через торрент бесплатно. Скачивайте фильмы в хорошем качестве, игры для пк, xbox, playstation без регистрации. У нас вы найдете новые Зарубежные сериалы и Русские сериалы 2013, 2014, 2015 годов. Оставайтесь с нами, качайте любимые фильмы, игры, сериалы, книги и музыку.