img image001 image001 image001 image001 image001 image001 image001 image001 image001 image001 image001 image001 image001 image001 image001

Planets Sun Sun Sun
Статистика раздачи
Автор: PriZraK | Размер: 50.7 ГБ | Добавлен: 15 фев 2014
Раздают: 0    Качают: 3
Скачать торрент
Скачать торрент
Описание торрента

СообщениеДобавлено: 15 фев 2014 

Танцы со звездами. Сезон 2013. Выпуск 01-11 (Из ??)

Год выпуска: 2013
Страна: Россия
Жанр: Танцевальное шоу
Продолжительность: 03:10:00 / выпуск
Перевод: Не требуется
Русские субтитры: нет

Описание: Танцы со звёздами — развлекательное телешоу, запущенное на телеканале «Россия» в январе 2006 года. Это российская версия английской программы канала BBC «Strictly Come Dancing».
В конкурсе участвуют пары, каждая из которых состоит из профессионального танцора и звезды телеэкрана, кинематографа, театра и т. п. После выступления каждой пары жюри выставляет оценки. После очередного выпуска телешоу начинается голосование телезрителей — телефонными звонками, либо посылкой SMS-сообщений. Оценка публики суммируется с оценкой профессионалов. Пара, которая набрала наименьшее количество баллов, покидает шоу. В финальной передаче сезона определяется победитель конкурса. В 2006 году телешоу было удостоено приза ТЭФИ.

Сезон 2013: На телеканале "Россия" - долгожданная премьера! В восьмой раз на паркет выходят звезды телевидения, эстрады, театра и кино! Звездные участники вновь принимают вызов и учатся танцевать бальные танцы в паре с профессиональными танцорами. Судить конкурсантов будет профессиональное и очень строгое жюри. Однако мнение жюри - не последнее. Посредством sms-голосования все телезрители смогут проголосовать за своего кумира. Возможно, мнение телезрителей окажется решающим!

Ведущие: Максим Галкин и Дарья Спиридонова

Доп. информация: Релиз -


Рип чистый. Без посторонних надписей. Выкладывается как есть.

Работоспособность проверена на: Телевизорах LG
Алена Водонаева, известная телеведущая и светская львица. В паре с Евгением Папунаишвили.
Ульяна Донскова, российская гимнастка, многократная чемпионка Европы и мира, заслуженный мастер спорта России, олимпийская чемпионка 2012 года по художественной гимнастике в групповом многоборье. Партнер – Артем Лялин.
Ирина Шадрина, модель, журналистка, ведущая телеканала "Россия-2". Партнер – Александр Логинов.
Елена Подкаминская, актриса театра и кино. Партнер – Андрей Карпов.
Анастасия Меньшикова, актриса, выпускница ГИТИСа (мастерская Александра Збруева), жена Олега Меньшикова. Партнер – Дмитрий Ташкин.
Сергей Барышев, актер. Зрителям известен в первую очередь по роли майора Винокурова в телесериале "Тайны следствия". Партнерша – Юлия Винар.
Стас Костюшкин, певец и поэт, бывший участник группы "Чай вдвоем". Партнерша – Анна Гудыно.
Виктор Набутов, теле- и радиоведущий, спортивный комментатор, продюсер. Партнерша – Мария Смольникова.
Виталий Гогунский, актер. Партнерша – Екатерина Осипова.
Сергей Писаренко, актер и телеведущий. Партнерша – Виктория Задорожная.
Данила Поляков,единственный русский мужчина – супермодель. Танцор и стилист. Партнерша – Алла Анастасьева.
Анна Терехова, актриса театра и кино, заслуженная артистка России. Дочь знаменитой актрисы Маргариты Тереховой. Партнер – Юрий Кремнев.
Ольга Прокофьева, актриса театра и кино, заслуженная артистка России. Партнер – Александр Ковшаров

Качество: HDTVRip 720p
Контейнер: MKV
Видео кодек: H.264
Аудио кодек: MP2
Видео: 1280x720 (16:9) 25.000 fps ~ 4 500 Kbps, 0.187 bit/pixel
Аудио: MPEG Audio, 48000Hz, 2 channels, 192 Кбит/сек






GeneralUnique ID : 231128552066880776951734717881867438497 (0xADE1BD6CE4F8CAB083FC414A405209A1)Complete name : D:ВыкладкаТанцы со звездами. Сезон 2013 (2013, Танцевальное шоу, HDTVRip 720p) (MYDIMKA)1 Выпуск (Эфир 14.09.2013) (MYDIMKA).mkvFormat : MatroskaFormat version : Version 2File size : 6.04 GiBDuration : 3h 8mnOverall bit rate : 4 596 KbpsEncoded date : UTC 2013-09-15 07:59:44Writing application : mkvmerge v5.8.0 ('No Sleep / Pillow') built on Sep 2 2012 15:37:04Writing library : libebml v1.2.3 + libmatroska v1.3.0

VideoID : 1Format : AVCFormat/Info : Advanced Video CodecFormat profile : High@L4.0Format settings, CABAC : YesFormat settings, ReFrames : 8 framesMuxing mode : Header strippingCodec ID : V_MPEG4/ISO/AVCDuration : 3h 8mnBit rate : 4 312 KbpsWidth : 1 280 pixelsHeight : 720 pixelsDisplay aspect ratio : 16:9Frame rate mode : ConstantFrame rate : 25.000 fpsColor space : YUVChroma subsampling : 4:2:0Bit depth : 8 bitsScan type : ProgressiveBits/(Pixel*Frame) : 0.187Stream size : 5.67 GiB (94%)Writing library : x264 core 125 r2208 d9d2288Encoding settings : cabac=1 / ref=8 / deblock=1:-1:-1 / analyse=0x3:0x133 / me=umh / subme=7 / psy=1 / psy_rd=1.00:0.10 / mixed_ref=1 / me_range=16 / chroma_me=1 / trellis=2 / 8x8dct=1 / cqm=0 / deadzone=21,11 / fast_pskip=0 / chroma_qp_offset=-3 / threads=12 / lookahead_threads=2 / sliced_threads=0 / nr=0 / decimate=1 / interlaced=0 / bluray_compat=0 / constrained_intra=0 / bframes=3 / b_pyramid=2 / b_adapt=2 / b_bias=0 / direct=3 / weightb=1 / open_gop=0 / weightp=2 / keyint=250 / keyint_min=25 / scenecut=40 / intra_refresh=0 / rc_lookahead=50 / rc=crf / mbtree=1 / crf=21.0 / qcomp=0.60 / qpmin=0 / qpmax=69 / qpstep=4 / ip_ratio=1.40 / aq=1:1.00Default : YesForced : No

AudioID : 2Format : MPEG AudioFormat version : Version 1Format profile : Layer 2Mode : Joint stereoMode extension : Intensity Stereo + MS StereoMuxing mode : Header strippingCodec ID : A_MPEG/L2Codec ID/Hint : MP2Duration : 3h 8mnBit rate mode : ConstantBit rate : 192 KbpsChannel(s) : 2 channelsSampling rate : 48.0 KHzCompression mode : LossyStream size : 258 MiB (4%)Language : RussianDefault : YesForced : No

Внимание! Раздача ведётся путём добавления новых выпусков; при каждом добавлении создётся новый торрент. Чтобы начать докачку нового выпуска, пользователям необходимо сделать следующее:
(1) остановить скачивание,
(2) удалить старый торрент у себя из клиента (старые выпуски удалять не надо),
(3) скачать новый торрент и запустить его у себя в клиенте вместо старого, при этом указать клиенту путь в старую папку куда и должно происходить скачивание новых выпусков.
Ваш клиент при этом должен произвести хеширование (проверку) старой папки (если не производит сам - помогите ему сделать это), и будет докачивать только те выпуски которых у вас ещё нет. Старые выпуски при этом не удаляются, а продолжают раздаваться!
Eсли вы уже удалили старые выпуски, то предотвратить повторную закачку старых выпусков можно, отжав галочку в соответсвующих местах при запуске нового торрента. По возможности, желательно не удалять старые выпуски как можно дольше чтобы релизёр не столько продолжал раздавать старые выпуски, а смог сконцентрироваться на новых.



   Похожие торренты   Торрент   Размер 
В этой теме нет новых непрочитанных сообщений. Танцы со звездами. Сезон 2013. [Выпуск 09] (2013) HDTVRip от MediaClub

3 | 4

1.46 ГБ

В этой теме нет новых непрочитанных сообщений. Танцы со звездами. Сезон 2013. [Выпуск 01-11] (2013) HDTVRip

0 | 6

25.18 ГБ

В этой теме нет новых непрочитанных сообщений. Танцы со звездами. Сезон 2013. [Выпуск 01] (2013) HDTV 1080i от MediaClub

0 | 5

13.11 ГБ

В этой теме нет новых непрочитанных сообщений. Танцы со звездами. Сезон 2013. [Выпуск 02] (2013) HDTV 1080i от MediaClub

2 | 4

11.67 ГБ

В этой теме нет новых непрочитанных сообщений. Танцы со звездами. Сезон 2012. Выпуск 02 [эфир от 13.10] (2012) SATRip

0 | 15

2.38 ГБ

В этой теме нет новых непрочитанных сообщений. Танцы со звездами. Сезон 2012. Выпуск 01 [эфир от 06.10] (2012) SATRip

0 | 2

2.38 ГБ

В этой теме нет новых непрочитанных сообщений. Танцы со звездами. Сезон 2011 года. Выпуск 9 (эфир от 2011.03.27) (20111) SATRip от Getty

0 | 3

1.43 ГБ




Вы не можете начинать темы
Вы не можете отвечать на сообщения
Вы не можете редактировать свои сообщения
Вы не можете удалять свои сообщения
Вы не можете добавлять вложения

Перейти:  
Для Мосгорсуда, Роскомнадзора и рекламодателей: mosgorsud-torrent[собачка]yandex.ru
 Вход
ppkBB3cker v.2 © 2008-2014 @ PPK
[ Time : 1.034s | 14 Queries | GZIP : Off ]

Торрент трекер RUTOR.IN, Не можете зайти на rutor.org? Какой новый адрес рутор? Какое зеркало рутор? Не работает rutor.org и зеркала? Тогда наш торрент специально для вас. Rutor.in неофициальное зеркало rutor. В случае если у Вас заблокирован rutor или вдруг Вы не можете на него зайти, то Вы без труда сможете скачать бесплатно и без рекламы последние новинки кино, игр, сериалов и прочего у нас, на Rutor.in. Не нужно использовать прокси, чтобы зайти на рутор, достаточно воспользоваться нашим ресурсом. Все новые фильмы, игры, сериалы, книги и музыка за 2013 и 2014 годы через торрент бесплатно. Скачивайте фильмы в хорошем качестве, игры для пк, xbox, playstation без регистрации. У нас вы найдете новые Зарубежные сериалы и Русские сериалы 2013, 2014, 2015 годов. Оставайтесь с нами, качайте любимые фильмы, игры, сериалы, книги и музыку.