img image001 image001 image001 image001 image001 image001 image001 image001 image001 image001 image001 image001 image001 image001 image001

Planets Sun Sun Sun
Статистика раздачи
Автор: PriZraK | Размер: 2.18 ГБ | Добавлен: 15 фев 2014
Раздают: 2    Качают: 2
Скачать торрент
Скачать торрент
Описание торрента

СообщениеДобавлено: 15 фев 2014 

Супердискотека 90-х (Санкт-Петербург, 23.11.2013)

Страна: Россия
Жанр: Pop
Продолжительность: 02:12:18
Год выпуска: 2013

Описание: Это гораздо больше, чем просто концерт! Это грандиозное высокотехнологичное шоу и одновременно возвращение в мир 90-х - туда, где музыку слушали на кассетах.
1.Klubbheads - Here We Go
2.Klubbheads - Hiphopping
3.Лицей - Осень
4.Татьяна Буланова - Колыбельная
5.Татьяна Буланова & DJ Цветкоff - Мой сон
6.Тату - Нас не догонят
7.Тату - Полчаса
8.Тату - Я сошла с ума
9.Рок Острова - Ничего не говори
10.Олег Кваша - Зеленоглазое такси
11.Corona - Rhythm of the Night
12.Corona - Baby Baby
13.Михаил Гребенщиков - Твои батоны
14.Юрий Титов - Понарошку
15.Анастасия Кочеткова - Ты для меня
16.Антон Зацепин - Ниже ростом только Губин
17.Никита Малинин - Котёнок
18.Никита Малинин - Вспышка в ночи
19.Пьер Нарцисс - Шоколадный заяц
20.Отпетые мошенники - Девушки бывают разные
21.Отпетые мошенники - Люби меня люби
22.In-Grid - Tu Es Foutu
23.Пропаганда - Мелом
24.Вирус - Ручки
25.Вирус - Попрошу тебя
26.Руки Вверх - Чужие губы
27.Руки Вверх - Крошка моя
28.Руки Вверх - Я не отдам тебя никому
29.Руки Вверх - 18 мне уже
Доп. информация: Релиз -


Рип чистый. Без посторонних надписей. Выкладывается как есть.

Качество: SATRIp
Формат: AVI
Видео кодек: XVID
Аудио кодек: MP3
Видео: 720x455 (4:3) 25.000 fps 2 109 Kbps, 0.220 bit/pixel
Аудио: MPEG Audio, 48000Hz, 2 channels, 192 Кбит/сек
General
Complete name : F:ВЫКЛАДКАДискотека 90-х (Санкт-Петербург, 23.11.2013) (2013, Pop, Концерт, SATRip) (MYDIMKA).avi
Format : AVI
Format/Info : Audio Video Interleave
Format profile : OpenDML
File size : 2.18 GiB
Duration : 2h 12mn
Overall bit rate : 2 354 Kbps
Writing application : VirtualDubMod 1.5.10.3 | www.virtualdub-fr.org || (build 2550/release)
Writing library : VirtualDubMod build 2550/release

Video
ID : 0
Format : MPEG-4 Visual
Format profile : Advanced Simple@L5
Format settings, BVOP : 2
Format settings, QPel : No
Format settings, GMC : No warppoints
Format settings, Matrix : Default (H.263)
Codec ID : XVID
Codec ID/Hint : XviD
Duration : 2h 12mn
Bit rate : 2 150 Kbps
Width : 720 pixels
Height : 544 pixels
Display aspect ratio : 4:3
Frame rate : 25.000 fps
Color space : YUV
Chroma subsampling : 4:2:0
Bit depth : 8 bits
Scan type : Progressive
Compression mode : Lossy
Bits/(Pixel*Frame) : 0.220
Stream size : 1.99 GiB (91%)
Writing library : XviD 1.2.1 (UTC 2008-12-04)

Audio
ID : 1
Format : MPEG Audio
Format version : Version 1
Format profile : Layer 3
Codec ID : 55
Codec ID/Hint : MP3
Duration : 2h 12mn
Bit rate mode : Constant
Bit rate : 192 Kbps
Channel count : 2 channels
Sampling rate : 48.0 KHz
Compression mode : Lossy
Stream size : 182 MiB (8%)
Alignment : Aligned on interleaves
Interleave, duration : 40 ms (1.00 video frame)
Interleave, preload duration : 504 ms
Writing library : LAME3.99r
Encoding settings : -m s -V 4 -q 2 -lowpass 18.6 -b 192








   Похожие торренты   Торрент   Размер 
В этой теме нет новых непрочитанных сообщений. Супердискотека 90-х. Санкт-Петербург [23.11] (2013) DVB

4 | 2

3.89 ГБ

В этой теме нет новых непрочитанных сообщений. Футбол. Объединенный турнир 2013. 2-й тур. Зенит (Санкт-Петербург) - Динамо (Киев) (2013) SATRip

0 | 2

1.42 ГБ

В этой теме нет новых непрочитанных сообщений. Футбол. Кубок России 2013-14. 1/16 финала. Тюмень - Зенит (Санкт-Петербург) [30.10] (2013) SATRip

0 | 2

1.46 ГБ

В этой теме нет новых непрочитанных сообщений. Футбол. Чемпионат России 2013-14. 8-й тур. Зенит (Санкт-Петербург) - Терек (Грозный) (2013) SATRip

0 | 2

1.73 ГБ

В этой теме нет новых непрочитанных сообщений. Футбол. Чемпионат России 2013/14. 16-й тур. Спартак (Москва) - Зенит (Санкт-Петербург) (2013) SATRip от MediaClub

3 | 2

1.44 ГБ

В этой теме нет новых непрочитанных сообщений. Футбол. Чемпионат России 2013-14. 10-й тур. Крылья Советов (Самара) - Зенит (Санкт-Петербург) (2013) SATRip

0 | 2

1.48 ГБ

В этой теме нет новых непрочитанных сообщений. Футбол. Чемпионат России 2012-2013. 26-й тур. Кубань (Краснодар) - Зенит (Санкт-Петербург) (2013) SATRip

0 | 1

1.41 ГБ




Вы не можете начинать темы
Вы не можете отвечать на сообщения
Вы не можете редактировать свои сообщения
Вы не можете удалять свои сообщения
Вы не можете добавлять вложения

Перейти:  
Для Мосгорсуда, Роскомнадзора и рекламодателей: mosgorsud-torrent[собачка]yandex.ru
 Вход
ppkBB3cker v.2 © 2008-2014 @ PPK
[ Time : 0.029s | 14 Queries | GZIP : Off ]

Торрент трекер RUTOR.IN, Не можете зайти на rutor.org? Какой новый адрес рутор? Какое зеркало рутор? Не работает rutor.org и зеркала? Тогда наш торрент специально для вас. Rutor.in неофициальное зеркало rutor. В случае если у Вас заблокирован rutor или вдруг Вы не можете на него зайти, то Вы без труда сможете скачать бесплатно и без рекламы последние новинки кино, игр, сериалов и прочего у нас, на Rutor.in. Не нужно использовать прокси, чтобы зайти на рутор, достаточно воспользоваться нашим ресурсом. Все новые фильмы, игры, сериалы, книги и музыка за 2013 и 2014 годы через торрент бесплатно. Скачивайте фильмы в хорошем качестве, игры для пк, xbox, playstation без регистрации. У нас вы найдете новые Зарубежные сериалы и Русские сериалы 2013, 2014, 2015 годов. Оставайтесь с нами, качайте любимые фильмы, игры, сериалы, книги и музыку.