img image001 image001 image001 image001 image001 image001 image001 image001 image001 image001 image001 image001 image001 image001 image001

Planets Sun Sun Sun
Статистика раздачи
Автор: PriZraK | Размер: 6.71 ГБ | Добавлен: 15 фев 2014
Раздают: 6    Качают: 3
Скачать торрент
Скачать торрент
Описание торрента

СообщениеДобавлено: 15 фев 2014 

Бит-квартет "Секрет": 30 лет на бис!

Жанр: Rock
Продолжительность: 01:15:44
Год выпуска: 2013

Описание: Это уникальное долгожданное событие для любителей подлинного рок-н-ролла! Впервые за много лет группа выступит в своем «золотом» составе. На сцену выйдут Максим Леонидов, Николай Фоменко, Андрей Заблудовский и Алексей Мурашов для того, побаловать нас своей замечательной музыкой, исполнить свои лучшие хиты и отметить 30-летие группы. За долгую историю своего существования участники группы «Секрет» не только выпустили несколько пластинок, которые разошлись миллионными тиражами, но и организовали Рок-театр-студию «Секрет», где поставили спектакль «Король рок-н-ролла» об Элвисе Пресли, приняли участие в десятках телепрограмм, часть из которых сами и придумали. Бит-квартет «Секрет» был одной из самых популярных групп в СССР и до сих пор их популярность не исчезла! «Секрет» любят и ждут! Грядущий юбилейный концерт станет роскошным подарком для поклонников группы, ведь «Секрет» не выступал в своем оригинальном составе много лет. На концерте ожидается множество сюрпризов, специальные гости, атмосфера праздника будет обеспечена!

Треклист:

1. Домой
2. Моя любовь на пятом этаже
3. Привет
4. Алиса
5. Именины у Кристины
6. Сара Барабу
7. Последний трамвай
8. Блюз бродячих собак
9. Беспечный ездок
10. Арина-балерина
11. Ленинградское время
12. Твой папа был прав
13. От Питера до Москвы
14. Я люблю буги-вуги (в титрах "Буги-вуги каждый день")
15. Она не понимает
16. Тысяча пластинок
17. Мажорный рок-н-ролл
18. Ничего не исчезает
19. Попурри (из песен "Ничего не бойся", "Не дай ему уйти", "Сидя на крыше", "Девочка-видение", "Не говори мне прощай")

Замечания к треклисту:
- Песня #13 "От Питера до Москвы" и 2 фрагмента из попурри ("Не дай ему уйти", "Девочка-видение") - песни из сольного репертуара Максима Леонидова. Тем не менее на сцене была вся четвёрка и песни были исполнены наряду с хитами "Секрета".
- Песня #14 "Я люблю буги-вуги" присутствует на альбомах "Секрета" именно под таким названием. В титрах дано название "Буги-вуги каждый день", под таким названием она есть в репертуаре автора и оригинального исполнителя этой песни Майка Науменко и группы "Зоопарк".

Доп. информация: Релиз -


Рип чистый. Без посторонних надписей. Выкладывается как есть.

Качество: HDTV 1080i
Контейнер: TS
Видео кодек: AVC
Аудио кодек: MP2
Видео: 1920x1080 (16:9) 25.000 fps 11.9 Mbps, 0.229 bit/pixel
Аудио: MP2 192 Kbps, 2 channels





General
ID : 1 (0x1)
Complete name : F:ВЫКЛАДКАБит-квартет Секрет. 30 лет на бис (2013, Rock, HDTV 1080i) (MYDIMKA).ts
Format : MPEG-TS
File size : 6.71 GiB
Duration : 1h 15mn
Overall bit rate mode : Variable
Overall bit rate : 12.7 Mbps

Video
ID : 305 (0x131)
Menu ID : 1 (0x1)
Format : AVC
Format/Info : Advanced Video Codec
Format profile : High@L4.0
Format settings, CABAC : Yes
Format settings, ReFrames : 3 frames
Codec ID : 27
Duration : 1h 15mn
Bit rate : 11.9 Mbps
Width : 1 920 pixels
Height : 1 080 pixels
Display aspect ratio : 16:9
Frame rate : 25.000 fps
Standard : Component
Color space : YUV
Chroma subsampling : 4:2:0
Bit depth : 8 bits
Scan type : Interlaced
Scan order : Top Field First
Bits/(Pixel*Frame) : 0.229
Stream size : 6.27 GiB (94%)
Color primaries : BT.709
Transfer characteristics : BT.709
Matrix coefficients : BT.709

Audio
ID : 405 (0x195)
Menu ID : 1 (0x1)
Format : MPEG Audio
Format version : Version 1
Format profile : Layer 2
Codec ID : 3
Duration : 1h 15mn
Bit rate mode : Constant
Bit rate : 192 Kbps
Channel count : 2 channels
Sampling rate : 48.0 KHz
Compression mode : Lossy
Stream size : 104 MiB (2%)
Language : English



   Похожие торренты   Торрент   Размер 
В этой теме нет новых непрочитанных сообщений. Бит-квартет "Секрет": 30 лет на бис! (2013) HDTVRip 720p

303 | 41

3.06 ГБ

В этой теме нет новых непрочитанных сообщений. Бит-квартет "Секрет": 30 лет на бис! (2013) DVB

2 | 2

3.22 ГБ

В этой теме нет новых непрочитанных сообщений. Музыкальный ринг: Бит квартет "Секрет" (1987) TVRip

1 | 8

824.77 МБ

В этой теме нет новых непрочитанных сообщений. Бит- квартет "Секрет" - Снова вместе, 25 лет спустя! (Телеверсия концерта) (2007) SATRip

2 | 22

599.96 МБ

В этой теме нет новых непрочитанных сообщений. Секрет на миллион [эфир от 25.09] (2016) HDTV 1080i от MediaClub

10 | 3

5.3 ГБ

В этой теме нет новых непрочитанных сообщений. Пусть говорят - Секрет Максима Леонидова [эфир от 25.09] (2014) HDTV 1080i

7 | 5

3.83 ГБ

В этой теме нет новых непрочитанных сообщений. Квартет ночной сакуры - песнь цветов / Yozakura Quartet: Hana no Uta [01x01] (2013) HDTV 720p | AniDuB

3 | 8

307.79 МБ




Вы не можете начинать темы
Вы не можете отвечать на сообщения
Вы не можете редактировать свои сообщения
Вы не можете удалять свои сообщения
Вы не можете добавлять вложения

Перейти:  
Для Мосгорсуда, Роскомнадзора и рекламодателей: mosgorsud-torrent[собачка]yandex.ru
 Вход
ppkBB3cker v.2 © 2008-2014 @ PPK
[ Time : 0.034s | 16 Queries | GZIP : Off ]

Торрент трекер RUTOR.IN, Не можете зайти на rutor.org? Какой новый адрес рутор? Какое зеркало рутор? Не работает rutor.org и зеркала? Тогда наш торрент специально для вас. Rutor.in неофициальное зеркало rutor. В случае если у Вас заблокирован rutor или вдруг Вы не можете на него зайти, то Вы без труда сможете скачать бесплатно и без рекламы последние новинки кино, игр, сериалов и прочего у нас, на Rutor.in. Не нужно использовать прокси, чтобы зайти на рутор, достаточно воспользоваться нашим ресурсом. Все новые фильмы, игры, сериалы, книги и музыка за 2013 и 2014 годы через торрент бесплатно. Скачивайте фильмы в хорошем качестве, игры для пк, xbox, playstation без регистрации. У нас вы найдете новые Зарубежные сериалы и Русские сериалы 2013, 2014, 2015 годов. Оставайтесь с нами, качайте любимые фильмы, игры, сериалы, книги и музыку.
cron