img image001 image001 image001 image001 image001 image001 image001 image001 image001 image001 image001 image001 image001 image001 image001

Planets Sun Sun Sun
Статистика раздачи
Автор: PriZraK | Размер: 3.22 ГБ | Добавлен: 15 фев 2014
Раздают: 2    Качают: 2
Скачать торрент
Скачать торрент
Описание торрента

СообщениеДобавлено: 15 фев 2014 

Бит-квартет "Секрет": 30 лет на бис!

Жанр: Rock
Продолжительность: 01:15:44
Год выпуска: 2013

Описание: Это уникальное долгожданное событие для любителей подлинного рок-н-ролла! Впервые за много лет группа выступит в своем «золотом» составе. На сцену выйдут Максим Леонидов, Николай Фоменко, Андрей Заблудовский и Алексей Мурашов для того, побаловать нас своей замечательной музыкой, исполнить свои лучшие хиты и отметить 30-летие группы. За долгую историю своего существования участники группы «Секрет» не только выпустили несколько пластинок, которые разошлись миллионными тиражами, но и организовали Рок-театр-студию «Секрет», где поставили спектакль «Король рок-н-ролла» об Элвисе Пресли, приняли участие в десятках телепрограмм, часть из которых сами и придумали. Бит-квартет «Секрет» был одной из самых популярных групп в СССР и до сих пор их популярность не исчезла! «Секрет» любят и ждут! Грядущий юбилейный концерт станет роскошным подарком для поклонников группы, ведь «Секрет» не выступал в своем оригинальном составе много лет. На концерте ожидается множество сюрпризов, специальные гости, атмосфера праздника будет обеспечена!

Треклист:

1. Домой
2. Моя любовь на пятом этаже
3. Привет
4. Алиса
5. Именины у Кристины
6. Сара Барабу
7. Последний трамвай
8. Блюз бродячих собак
9. Беспечный ездок
10. Арина-балерина
11. Ленинградское время
12. Твой папа был прав
13. От Питера до Москвы
14. Я люблю буги-вуги (в титрах "Буги-вуги каждый день")
15. Она не понимает
16. Тысяча пластинок
17. Мажорный рок-н-ролл
18. Ничего не исчезает
19. Попурри (из песен "Ничего не бойся", "Не дай ему уйти", "Сидя на крыше", "Девочка-видение", "Не говори мне прощай")

Замечания к треклисту:
- Песня #13 "От Питера до Москвы" и 2 фрагмента из попурри ("Не дай ему уйти", "Девочка-видение") - песни из сольного репертуара Максима Леонидова. Тем не менее на сцене была вся четвёрка и песни были исполнены наряду с хитами "Секрета".
- Песня #14 "Я люблю буги-вуги" присутствует на альбомах "Секрета" именно под таким названием. В титрах дано название "Буги-вуги каждый день", под таким названием она есть в репертуаре автора и оригинального исполнителя этой песни Майка Науменко и группы "Зоопарк".

Доп. информация: Релиз -


Рип чистый. Без посторонних надписей. Выкладывается как есть.

Качество: DVB
Формат: MPG
Видео кодек: MPG2
Аудио кодек: MP2
Видео: 720x576 @ 1024x576 (16:9) 25.00fps 5 804 Kbps, 0.560 bit/pixel
Аудио: MPEG Audio 48000Hz 2 channels 192 Кбит/сек





General
Complete name : F:ВЫКЛАДКАБит-квартет Секрет. 30 лет на бис (2013, Rock, DVB) (MYDIMKA).mpg
Format : MPEG-PS
File size : 3.22 GiB
Duration : 1h 15mn
Overall bit rate mode : Variable
Overall bit rate : 6 084 Kbps

Video
ID : 224 (0xE0)
Format : MPEG Video
Format version : Version 2
Format profile : Main@Main
Format settings, BVOP : Yes
Format settings, Matrix : Custom
Format settings, GOP : Variable
Duration : 1h 15mn
Bit rate mode : Variable
Bit rate : 5 803 Kbps
Maximum bit rate : 15.0 Mbps
Width : 720 pixels
Height : 576 pixels
Display aspect ratio : 16:9
Frame rate : 25.000 fps
Standard : PAL
Color space : YUV
Chroma subsampling : 4:2:0
Bit depth : 8 bits
Scan type : Interlaced
Scan order : Top Field First
Compression mode : Lossy
Bits/(Pixel*Frame) : 0.560
Time code of first frame : 00:00:00:00
Time code source : Group of pictures header
Stream size : 3.07 GiB (95%)

Audio
ID : 192 (0xC0)
Format : MPEG Audio
Format version : Version 1
Format profile : Layer 2
Duration : 1h 15mn
Bit rate mode : Constant
Bit rate : 160 Kbps
Channel count : 2 channels
Sampling rate : 48.0 KHz
Compression mode : Lossy
Delay relative to video : -9ms
Stream size : 86.7 MiB (3%)



   Похожие торренты   Торрент   Размер 
В этой теме нет новых непрочитанных сообщений. Бит-квартет "Секрет": 30 лет на бис! (2013) HDTV 1080i

6 | 3

6.71 ГБ

В этой теме нет новых непрочитанных сообщений. Бит-квартет "Секрет": 30 лет на бис! (2013) HDTVRip 720p

303 | 41

3.06 ГБ

В этой теме нет новых непрочитанных сообщений. Музыкальный ринг: Бит квартет "Секрет" (1987) TVRip

1 | 8

824.77 МБ

В этой теме нет новых непрочитанных сообщений. Бит- квартет "Секрет" - Снова вместе, 25 лет спустя! (Телеверсия концерта) (2007) SATRip

2 | 22

599.96 МБ

В этой теме нет новых непрочитанных сообщений. Секрет Н.И.М.Х. / Секрет Крыс / The Secret of NIMH (1982) BDRip 1080p

3 | 4

5.9 ГБ

В этой теме нет новых непрочитанных сообщений. Секрет Н.И.М.Х. / Секрет Крыс / The Secret of NIMH (1982) BDRip-AVC от AVCurtain

50 | 9

2.69 ГБ

В этой теме нет новых непрочитанных сообщений. Секрет Н.И.М.Х. / Секрет Крыс / The Secret of NIMH (1982) BDRemux 1080p

0 | 2

17.55 ГБ




Вы не можете начинать темы
Вы не можете отвечать на сообщения
Вы не можете редактировать свои сообщения
Вы не можете удалять свои сообщения
Вы не можете добавлять вложения

Перейти:  
Для Мосгорсуда, Роскомнадзора и рекламодателей: mosgorsud-torrent[собачка]yandex.ru
 Вход
ppkBB3cker v.2 © 2008-2014 @ PPK
[ Time : 0.054s | 14 Queries | GZIP : Off ]

Торрент трекер RUTOR.IN, Не можете зайти на rutor.org? Какой новый адрес рутор? Какое зеркало рутор? Не работает rutor.org и зеркала? Тогда наш торрент специально для вас. Rutor.in неофициальное зеркало rutor. В случае если у Вас заблокирован rutor или вдруг Вы не можете на него зайти, то Вы без труда сможете скачать бесплатно и без рекламы последние новинки кино, игр, сериалов и прочего у нас, на Rutor.in. Не нужно использовать прокси, чтобы зайти на рутор, достаточно воспользоваться нашим ресурсом. Все новые фильмы, игры, сериалы, книги и музыка за 2013 и 2014 годы через торрент бесплатно. Скачивайте фильмы в хорошем качестве, игры для пк, xbox, playstation без регистрации. У нас вы найдете новые Зарубежные сериалы и Русские сериалы 2013, 2014, 2015 годов. Оставайтесь с нами, качайте любимые фильмы, игры, сериалы, книги и музыку.