img image001 image001 image001 image001 image001 image001 image001 image001 image001 image001 image001 image001 image001 image001 image001

Planets Sun Sun Sun
Статистика раздачи
Автор: PriZraK | Размер: 4.88 ГБ | Добавлен: 15 фев 2014
Раздают: 0    Качают: 1
Скачать торрент
Скачать торрент
Описание торрента

СообщениеДобавлено: 15 фев 2014 

Успеть до полуночи. Первый (1) сезон. Выпуск 01-10 (Из ??)

Год выпуска: 2013
Страна: Россия
Жанр: Тв-шоу, Юмор
Продолжительность: 00:46:07
Перевод: Не требуется
Русские субтитры: нет

Режиссер: 2013

Описание:

Еженедельная юмористическая викторина, вопросы которой, в основном, посвящены событиям прошедшей недели.
Главные действующие лица - Алексей Чумаков и Тимур Родригез. Им ничего не страшно и никого не жалко. Они готовы:
- с юмором оценить те новости, которые запомнились за неделю,
- обшутить то, что достойно быть осмеянным,
- обсудить тех, кто подставился,
- просто поднять настроение в конце недели себе и зрителям!

Под стать ведущим и гости – музыканты, шоумены, актеры, телеведущие. "С приглашенными звездами я буду вести себя как со звездами - брать автографы, восторгаться ими и выполнять райдер, причем прямо в студии – говорит Алексей Чумаков - Я бы хотел увидеть Брэда Питта... Всегда мечтал пожать руку, обнимающую Анджелину Джолли. Тимур только и говорит о Дэнни Де Вито и каждый день репетирует перед зеркалом "взгляд свысока". Думаю, Дэнни - один из немногих людей на планете, на кого Тимур действительно сможет так взглянуть".

Источник: собственный рип

Доп. информация: Релиз -


Рип чистый. Без посторонних надписей. Выкладывается как есть.

Качество: SATRIp
Формат: AVI
Видео кодек: XVID
Аудио кодек: MP3
Видео: 720x400 (16:9) 23.976 fps 1 709 Kbps, 0.247 bit/pixel
Аудио: MPEG Audio, 48000Hz, 2 channels, 192 Кбит/сек







GeneralComplete name : D:ВыкладкаУспеть до полуночи. Первый сезон (2013, Тв-шоу, Юмор, SATRip) (MYDIMKA)1 выпуск (Эфир 07.09.2013) (MYDIMKA).aviFormat : AVIFormat/Info : Audio Video InterleaveFile size : 594 MiBDuration : 46mn 7sOverall bit rate : 1 801 KbpsWriting application : VirtualDubMod 1.5.10.3 | www.virtualdub-fr.org || (build 2550/release)Writing library : VirtualDubMod build 2550/release

VideoID : 0Format : MPEG-4 VisualFormat profile : Advanced Simple@L5Format settings, BVOP : 2Format settings, QPel : NoFormat settings, GMC : No warppointsFormat settings, Matrix : Default (H.263)Muxing mode : Packed bitstreamCodec ID : XVIDCodec ID/Hint : XviDDuration : 46mn 7sBit rate : 1 599 KbpsWidth : 720 pixelsHeight : 400 pixelsDisplay aspect ratio : 16:9Frame rate : 25.000 fpsColor space : YUVChroma subsampling : 4:2:0Bit depth : 8 bitsScan type : ProgressiveCompression mode : LossyBits/(Pixel*Frame) : 0.222Stream size : 528 MiB (89%)Writing library : XviD 1.2.1 (UTC 2008-12-04)

AudioID : 1Format : MPEG AudioFormat version : Version 1Format profile : Layer 3Codec ID : 55Codec ID/Hint : MP3Duration : 46mn 7sBit rate mode : ConstantBit rate : 192 KbpsChannel(s) : 2 channelsSampling rate : 48.0 KHzCompression mode : LossyStream size : 63.3 MiB (11%)Alignment : Aligned on interleavesInterleave, duration : 40 ms (1.00 video frame)Interleave, preload duration : 504 msWriting library : LAME3.99rEncoding settings : -m s -V 4 -q 2 -lowpass 18.6 -b 192



   Похожие торренты   Торрент   Размер 
В этой теме нет новых непрочитанных сообщений. Повтори! Первый сезон [Выпуск 01-08] (2013) HDTVRip

0 | 3

14.33 ГБ

В этой теме нет новых непрочитанных сообщений. Повтори! Первый сезон [Выпуск 01-08] (2013) HDTV 1080i

0 | 2

67.73 ГБ

В этой теме нет новых непрочитанных сообщений. Повтори! Первый сезон [Выпуск 01-06] (2013) HDTVRip 720p

0 | 1

16.08 ГБ

В этой теме нет новых непрочитанных сообщений. Успеть до полуночи / Midnight Run (1988) BDRip-AVC

10 | 4

3.52 ГБ

В этой теме нет новых непрочитанных сообщений. Успеть до полуночи / Midnight Run (1988) HDDVDRip | P

13 | 3

756.77 МБ

В этой теме нет новых непрочитанных сообщений. Успеть до полуночи / Midnight Run (1988) HDRip от Scarabey | Р

61 | 5

1.45 ГБ

В этой теме нет новых непрочитанных сообщений. Успеть до полуночи / Midnight Run (1988) BDRip от Koenig | P

60 | 2

2.19 ГБ




Вы не можете начинать темы
Вы не можете отвечать на сообщения
Вы не можете редактировать свои сообщения
Вы не можете удалять свои сообщения
Вы не можете добавлять вложения

Перейти:  
Для Мосгорсуда, Роскомнадзора и рекламодателей: mosgorsud-torrent[собачка]yandex.ru
 Вход
ppkBB3cker v.2 © 2008-2014 @ PPK
[ Time : 0.051s | 14 Queries | GZIP : Off ]

Торрент трекер RUTOR.IN, Не можете зайти на rutor.org? Какой новый адрес рутор? Какое зеркало рутор? Не работает rutor.org и зеркала? Тогда наш торрент специально для вас. Rutor.in неофициальное зеркало rutor. В случае если у Вас заблокирован rutor или вдруг Вы не можете на него зайти, то Вы без труда сможете скачать бесплатно и без рекламы последние новинки кино, игр, сериалов и прочего у нас, на Rutor.in. Не нужно использовать прокси, чтобы зайти на рутор, достаточно воспользоваться нашим ресурсом. Все новые фильмы, игры, сериалы, книги и музыка за 2013 и 2014 годы через торрент бесплатно. Скачивайте фильмы в хорошем качестве, игры для пк, xbox, playstation без регистрации. У нас вы найдете новые Зарубежные сериалы и Русские сериалы 2013, 2014, 2015 годов. Оставайтесь с нами, качайте любимые фильмы, игры, сериалы, книги и музыку.