img image001 image001 image001 image001 image001 image001 image001 image001 image001 image001 image001 image001 image001 image001 image001

Planets Sun Sun Sun
Статистика раздачи
Автор: PriZraK | Размер: 3.89 ГБ | Добавлен: 15 фев 2014
Раздают: 4    Качают: 2
Скачать торрент
Скачать торрент
Описание торрента

СообщениеДобавлено: 15 фев 2014 

Супердискотека 90-х (Санкт-Петербург, 23.11.2013)

Страна: Россия
Жанр: Pop
Продолжительность: 02:12:18
Год выпуска: 2013

Описание: Это гораздо больше, чем просто концерт! Это грандиозное высокотехнологичное шоу и одновременно возвращение в мир 90-х - туда, где музыку слушали на кассетах.
1.Klubbheads - Here We Go
2.Klubbheads - Hiphopping
3.Лицей - Осень
4.Татьяна Буланова - Колыбельная
5.Татьяна Буланова & DJ Цветкоff - Мой сон
6.Тату - Нас не догонят
7.Тату - Полчаса
8.Тату - Я сошла с ума
9.Рок Острова - Ничего не говори
10.Олег Кваша - Зеленоглазое такси
11.Corona - Rhythm of the Night
12.Corona - Baby Baby
13.Михаил Гребенщиков - Твои батоны
14.Юрий Титов - Понарошку
15.Анастасия Кочеткова - Ты для меня
16.Антон Зацепин - Ниже ростом только Губин
17.Никита Малинин - Котёнок
18.Никита Малинин - Вспышка в ночи
19.Пьер Нарцисс - Шоколадный заяц
20.Отпетые мошенники - Девушки бывают разные
21.Отпетые мошенники - Люби меня люби
22.In-Grid - Tu Es Foutu
23.Пропаганда - Мелом
24.Вирус - Ручки
25.Вирус - Попрошу тебя
26.Руки Вверх - Чужие губы
27.Руки Вверх - Крошка моя
28.Руки Вверх - Я не отдам тебя никому
29.Руки Вверх - 18 мне уже
Доп. информация: Релиз -


Рип чистый. Без посторонних надписей. Выкладывается как есть.

Качество: DVB
Формат: MPG
Видео кодек: MPG2
Аудио кодек: MP2
Видео: 720x576 @ (4:3) 25.00fps 3 934 Kbps, 0.379 bit/pixel
Аудио: MPEG Audio 48000Hz stereo 192 Кбит/сек
General
Complete name : F:ВЫКЛАДКАДискотека 90-х (Санкт-Петербург, 23.11.2013) (2013, Pop, Концерт, DVB) (MYDIMKA).mpg
Format : MPEG-PS
File size : 3.89 GiB
Duration : 2h 12mn
Overall bit rate mode : Variable
Overall bit rate : 4 209 Kbps

Video
ID : 224 (0xE0)
Format : MPEG Video
Format version : Version 2
Format profile : Main@Main
Format settings, BVOP : Yes
Format settings, Matrix : Custom
Format settings, GOP : Variable
Duration : 2h 12mn
Bit rate mode : Variable
Bit rate : 3 934 Kbps
Maximum bit rate : 4 000 Kbps
Width : 720 pixels
Height : 576 pixels
Display aspect ratio : 4:3
Frame rate : 25.000 fps
Standard : PAL
Color space : YUV
Chroma subsampling : 4:2:0
Bit depth : 8 bits
Scan type : Interlaced
Scan order : Top Field First
Compression mode : Lossy
Bits/(Pixel*Frame) : 0.379
Time code of first frame : 00:00:00:00
Time code source : Group of pictures header
Stream size : 3.64 GiB (93%)

Audio
ID : 192 (0xC0)
Format : MPEG Audio
Format version : Version 1
Format profile : Layer 2
Mode : Joint stereo
Mode extension : Intensity Stereo + MS Stereo
Duration : 2h 12mn
Bit rate mode : Constant
Bit rate : 192 Kbps
Channel count : 2 channels
Sampling rate : 48.0 KHz
Compression mode : Lossy
Delay relative to video : 9ms
Stream size : 182 MiB (5%)








   Похожие торренты   Торрент   Размер 
В этой теме нет новых непрочитанных сообщений. Супердискотека 90-х. Санкт-Петербург [23.11] (2013) SATRip

2 | 2

2.18 ГБ

В этой теме нет новых непрочитанных сообщений. Футбол. Объединенный турнир 2013. 2-й тур. Зенит (Санкт-Петербург) - Динамо (Киев) (2013) SATRip

0 | 2

1.42 ГБ

В этой теме нет новых непрочитанных сообщений. Футбол. Кубок России 2013-14. 1/16 финала. Тюмень - Зенит (Санкт-Петербург) [30.10] (2013) SATRip

0 | 2

1.46 ГБ

В этой теме нет новых непрочитанных сообщений. Футбол. Суперкубок России 2013. ЦСКА (Москва) - Зенит (Санкт-Петербург) [НТВ+] (2013) HDTVRip

5 | 3

1.51 ГБ

В этой теме нет новых непрочитанных сообщений. Футбол. Чемпионат России 2013-14. 14-й тур. Урал (Екатеринбург) - Зенит (Санкт-Петербург) (2013) WEB-DL 720p

0 | 2

1.41 ГБ

В этой теме нет новых непрочитанных сообщений. Футбол. Чемпионат России 2013-14. 11-й тур. Зенит (Санкт-Петербург) - Спартак (Москва) (2013) HDTVRip

5 | 2

1.46 ГБ

В этой теме нет новых непрочитанных сообщений. Футбол. Чемпионат России 2013-14. 13-й тур. Зенит (Санкт-Петербург) - ЦСКА (Москва) (2013) HDTVRip

4 | 3

1.66 ГБ




Вы не можете начинать темы
Вы не можете отвечать на сообщения
Вы не можете редактировать свои сообщения
Вы не можете удалять свои сообщения
Вы не можете добавлять вложения

Перейти:  
Для Мосгорсуда, Роскомнадзора и рекламодателей: mosgorsud-torrent[собачка]yandex.ru
 Вход
ppkBB3cker v.2 © 2008-2014 @ PPK
[ Time : 0.786s | 15 Queries | GZIP : Off ]

Торрент трекер RUTOR.IN, Не можете зайти на rutor.org? Какой новый адрес рутор? Какое зеркало рутор? Не работает rutor.org и зеркала? Тогда наш торрент специально для вас. Rutor.in неофициальное зеркало rutor. В случае если у Вас заблокирован rutor или вдруг Вы не можете на него зайти, то Вы без труда сможете скачать бесплатно и без рекламы последние новинки кино, игр, сериалов и прочего у нас, на Rutor.in. Не нужно использовать прокси, чтобы зайти на рутор, достаточно воспользоваться нашим ресурсом. Все новые фильмы, игры, сериалы, книги и музыка за 2013 и 2014 годы через торрент бесплатно. Скачивайте фильмы в хорошем качестве, игры для пк, xbox, playstation без регистрации. У нас вы найдете новые Зарубежные сериалы и Русские сериалы 2013, 2014, 2015 годов. Оставайтесь с нами, качайте любимые фильмы, игры, сериалы, книги и музыку.
cron