img image001 image001 image001 image001 image001 image001 image001 image001 image001 image001 image001 image001 image001 image001 image001

Planets Sun Sun Sun
Статистика раздачи
Автор: PriZraK | Размер: 1.46 ГБ | Добавлен: 15 фев 2014
Раздают: 155    Качают: 12
Скачать торрент
Скачать торрент
Описание торрента

СообщениеДобавлено: 15 фев 2014 


АНОНСЫ МОИХ РИПОВ!


Чудаки 3 / Jackass 3

Год выпуска: 2010
Страна: США
Киностудия: Dickhouse Productions, MTV Films
Жанр: комедия, документальный
Продолжительность: 01:39:44
Перевод: Профессиональный (дублированный) Лицензия
Cубтитры: нет
Оригинальная аудиодорожка: нет

Режиссер: Джефф Треймейн / Jeff Tremaine

В ролях: Джонни Ноксвил, Бэм Марджера, Райан Данн, Стив-О, Джейсон Акуна, Престон Лэси, Крис Понтиус, Эрен МакГехи, Дэйв Инглэнд, Лумис Фолл...

Роли дублировали: Алексей Мясников, Александр Гаврилин, Денис Беспалый, Дмитрий Курта, Инна Королёва...

Описание: Скандальная, саркастическая, грубая и абсолютно сумасбродная команда Джонни Ноксвила опять готова шокировать, смешить и срывать крышу, и в этот раз они удивят еще больше. Теперь каждый может стать почти соучастником событий, поскольку наблюдать за выходками чудаков можно будет в формате 3D. Фильм состоит из ряда экстремальных трюков, нерядовых шуток и безумных экспериментов, — все это испытает на собственной шкуре эта безумная компания. Никогда не знаешь — плакать или смеяться от их выходок, ведь они демонстрируют то, что каждый тайком хотел сделать, но боялся попробовать.



Качество видео: HDRip - Исходник BDRip 1080p
Формат видео: AVI
Видео кодек: XviD
Аудио кодек: AC3
Видео: 688x384 (1.79:1), 23.976 fps, XviD build 73 ~1698 kbps avg, 0.27 bit/pixel
Аудио: 48 kHz, AC3 Dolby Digital, 3/2 (L,C,R,l,r) + LFE ch, ~384 kbps

Раздача от:


D:Мои рипыJackass.3.2010.HDRip.DUB.dexter_lex.avi
General
Complete name : D:Мои рипыJackass.3.2010.HDRip.DUB.dexter_lex.avi
Format : AVI
Format/Info : Audio Video Interleave
File size : 1.46 GiB
Duration : 1h 39mn
Overall bit rate : 2 092 Kbps
Writing application : VirtualDubMod 1.5.10.3 | www.virtualdub-fr.org || (build 2550/release)
Writing library : VirtualDubMod build 2550/release
Video #0
ID : 0
Format : MPEG-4 Visual
Format profile : Advanced Simple@L5
Format settings, BVOP : 1
Format settings, QPel : No
Format settings, GMC : No warppoints
Format settings, Matrix : Custom
Codec ID : XVID
Codec ID/Hint : XviD
Duration : 1h 39mn
Bit rate : 1 698 Kbps
Width : 688 pixels
Height : 384 pixels
Display aspect ratio : 16:9
Frame rate : 23.976 fps
Color space : YUV
Chroma subsampling : 4:2:0
Bit depth : 8 bits
Scan type : Progressive
Compression mode : Lossy
Bits/(Pixel*Frame) : 0.268
Stream size : 1.18 GiB (81%)
Writing library : XviD 73
Audio #1
ID : 1
Format : AC-3
Format/Info : Audio Coding 3
Mode extension : CM (complete main)
Codec ID : 2000
Duration : 1h 39mn
Bit rate mode : Constant
Bit rate : 384 Kbps
Channel(s) : 6 channels
Channel positions : Front: L C R, Side: L R, LFE
Sampling rate : 48.0 KHz
Bit depth : 16 bits
Compression mode : Lossy
Stream size : 274 MiB (18%)
Alignment : Split accross interleaves
Interleave, duration : 42 ms (1.00 video frame)
Interleave, preload duration : 500 ms



   Похожие торренты   Торрент   Размер 
В этой теме нет новых непрочитанных сообщений. Чудаки 3 / Jackass 3 (2010) HDRip | UNRATED | Лицензия

38 | 4

1.37 ГБ

В этой теме нет новых непрочитанных сообщений. Чудаки 3 / Jackass 3 (2010) HDRip | UNRATED | Лицензия

47 | 73

700.54 МБ

В этой теме нет новых непрочитанных сообщений. Чудаки 3 / Jackass 3 (2010) HDRip | UNRATED | Лицензия

22 | 2

1.46 ГБ

В этой теме нет новых непрочитанных сообщений. Чудаки 3 / Jackass 3 (2010) BDRip 1080p | UNRATED | Лицензия

8 | 6

8.99 ГБ

В этой теме нет новых непрочитанных сообщений. Чудаки 3D / Jackass 3D (2010) BDRip от HQCLUB | Unrated

99 | 10

1.45 ГБ

В этой теме нет новых непрочитанных сообщений. Чудаки 3D / Jackass 3D (2010) BDRip от HELLYWOOD | Unrated

45 | 9

2.5 ГБ

В этой теме нет новых непрочитанных сообщений. Чудаки 3 / Jackass 3 (2010) BDRip 720p от FireBit | UNRATED

8 | 6

2.73 ГБ




Вы не можете начинать темы
Вы не можете отвечать на сообщения
Вы не можете редактировать свои сообщения
Вы не можете удалять свои сообщения
Вы не можете добавлять вложения

Перейти:  
Для Мосгорсуда, Роскомнадзора и рекламодателей: mosgorsud-torrent[собачка]yandex.ru
 Вход
ppkBB3cker v.2 © 2008-2014 @ PPK
[ Time : 0.082s | 16 Queries | GZIP : Off ]

cron