img image001 image001 image001 image001 image001 image001 image001 image001 image001 image001 image001 image001 image001 image001 image001

Planets Sun Sun Sun
Статистика раздачи
Автор: PriZraK | Размер: 788.14 МБ | Добавлен: 15 фев 2014
Раздают: 77    Качают: 5
Скачать торрент
Скачать торрент
Описание торрента

СообщениеДобавлено: 15 фев 2014 

Информация о фильме
Название: Битва экстрасенсов
Год выхода: 2013
Жанр: Телепередача
Режиссер: Олег Чаурс
Ведущий: Марат Башаров,братья Сафроновы
О фильме:
Канал ТНТ объявляет о старте нового, 14-го сезона шоу «Битва экстрасенсов». Теперь каждый выпуск программы будет длиться полтора часа вместо привычных 60 минут.

«В этом сезоне наши постоянные скептики братья Сафроновы объявляют почти открытую войну экстрасенсам. Так что 14-я «Битва» будет жаркой. Все испытания, которые готовятся для участников, держатся в строжайшем секрете. В этом смысл всего проекта: мы должны соблюдать чистоту эксперимента».
Страна: Россия
Студия: Телекомпания:ТнТ
Продолжительность: 01:07:15
Перевод: оригинал

Файл
Кодек: XviD
Качество: SATRip
Видео: 720x400, 1501 kb/s, 25 fps
Звук: MP3, 2 ch, 128 kb/s

Общее
Полное имя : D:РаздачиBitva yekstrasensov. Sezon №14. Vyipusk №11 (2013) SATRip.avi
Формат : AVI
Формат/Информация : Audio Video Interleave
Размер файла : 788 Мбайт
Продолжительность : 1 ч. 7 м.
Общий поток : 1638 Кбит/сек
Библиотека кодирования : VirtualDub build 32706/release

Видео
Идентификатор : 0
Формат : MPEG-4 Visual
Профиль формата : Advanced Simple@L5
Параметр BVOP формата : 2
Параметр QPel формата : Нет
Параметр GMC формата : Без точки перехода
Параметр матрицы формата : Default (MPEG)
Идентификатор кодека : XVID
Идентификатор кодека/Подсказка : XviD
Продолжительность : 1 ч. 7 м.
Битрейт : 1501 Кбит/сек
Ширина : 720 пикселей
Высота : 400 пикселей
Соотношение сторон : 16:9
Частота кадров : 25,000 кадров/сек
Цветовое пространство : YUV
Субдискретизация насыщенности : 4:2:0
Битовая глубина : 8 бит
Тип развёртки : Прогрессивная
Метод сжатия : С потерями
Бит/(Пиксели*Кадры) : 0.208
Размер потока : 722 Мбайт (92%)
Библиотека кодирования : XviD 1.2.1 (UTC 2008-12-04)

Аудио
Идентификатор : 1
Формат : MPEG Audio
Версия формата : Version 1
Профиль формата : Layer 3
Режим : Joint stereo
Расширение режима : MS Stereo
Идентификатор кодека : 55
Идентификатор кодека/Подсказка : MP3
Продолжительность : 1 ч. 7 м.
Вид битрейта : Постоянный
Битрейт : 128 Кбит/сек
Каналы : 2 канала
Частота : 48,0 КГц
Метод сжатия : С потерями
Размер потока : 61,6 Мбайт (8%)
Выравнивание : Разделение по промежуткам
Продолжительность промежутка : 40 мс. (1,00 видеокадр)
Время предзагрузки промежутка : 500 мс.





   Похожие торренты   Торрент   Размер 
В этой теме нет новых непрочитанных сообщений. Битва экстрасенсов [14х11] (2013) WEB-DLRip

56 | 4

570.94 МБ

В этой теме нет новых непрочитанных сообщений. Битва экстрасенсов [14х01-09] (2013) SATRip

175 | 95

7.35 ГБ

В этой теме нет новых непрочитанных сообщений. Битва экстрасенсов [14х13] (2013) SATRip

120 | 7

831.16 МБ

В этой теме нет новых непрочитанных сообщений. Битва экстрасенсов [14х12] (2013) SATRip

70 | 10

912.36 МБ

В этой теме нет новых непрочитанных сообщений. Битва экстрасенсов [14x14] (2013) SATRip

113 | 9

806.62 МБ

В этой теме нет новых непрочитанных сообщений. Битва экстрасенсов [14x15] (2013) SATRip

99 | 12

820.01 МБ

В этой теме нет новых непрочитанных сообщений. Битва экстрасенсов [15x10] (2014) SATRip

458 | 6

987.47 МБ




Вы не можете начинать темы
Вы не можете отвечать на сообщения
Вы не можете редактировать свои сообщения
Вы не можете удалять свои сообщения
Вы не можете добавлять вложения

Перейти:  
Для Мосгорсуда, Роскомнадзора и рекламодателей: mosgorsud-torrent[собачка]yandex.ru
 Вход
ppkBB3cker v.2 © 2008-2014 @ PPK
[ Time : 0.046s | 15 Queries | GZIP : Off ]

Торрент трекер RUTOR.IN, Не можете зайти на rutor.org? Какой новый адрес рутор? Какое зеркало рутор? Не работает rutor.org и зеркала? Тогда наш торрент специально для вас. Rutor.in неофициальное зеркало rutor. В случае если у Вас заблокирован rutor или вдруг Вы не можете на него зайти, то Вы без труда сможете скачать бесплатно и без рекламы последние новинки кино, игр, сериалов и прочего у нас, на Rutor.in. Не нужно использовать прокси, чтобы зайти на рутор, достаточно воспользоваться нашим ресурсом. Все новые фильмы, игры, сериалы, книги и музыка за 2013 и 2014 годы через торрент бесплатно. Скачивайте фильмы в хорошем качестве, игры для пк, xbox, playstation без регистрации. У нас вы найдете новые Зарубежные сериалы и Русские сериалы 2013, 2014, 2015 годов. Оставайтесь с нами, качайте любимые фильмы, игры, сериалы, книги и музыку.