img image001 image001 image001 image001 image001 image001 image001 image001 image001 image001 image001 image001 image001 image001 image001

Planets Sun Sun Sun
Статистика раздачи
Автор: PriZraK | Размер: 317.35 МБ | Добавлен: 15 фев 2014
Раздают: 0    Качают: 2
Скачать торрент
Скачать торрент
Описание торрента

СообщениеДобавлено: 15 фев 2014 

Информация о фильме
Название: Красоты Земли
Оригинальное название: Sony Bravia Beauty of Earth
Год выхода: 2009
Жанр: Созерцательно-видовой

Демонстрационный клип видов природы в сопровождении музыки.

Продолжительность: 00:06:47 ч.
Перевод: Не требуется

Файл
Кодек: h264
Качество: BDRip 720p
Видео: 1280x720 at 29.970 fps, MPEG-4 AVC, ~5 575 Kbps avg
Звук: AC3: 5.1 / 48 kHz / 640 kbps / 16-bit
Субтитры: Не требуются

MediaInfo:
Общее
Уникальный идентификатор : 173514779047064174353991216472228013682 (0x8289BB1AB151CB9C8ECF92A3F44EA672)
Полное имя : D:Sony Bravia. Beauty of Earth. 2009.mkv
Формат : Matroska
Версия формата : Version 4 / Version 2
Размер файла : 317 Мбайт
Продолжительность : 6 м. 41 с.
Общий поток : 6631 Кбит/сек
Дата кодирования : UTC 2013-12-04 19:14:25
Программа кодирования : mkvmerge v6.0.0 ('Coming Up For Air') built on Jan 20 2013 09:52:00
Библиотека кодирования : libebml v1.3.0 + libmatroska v1.4.0

Видео
Идентификатор : 1
Формат : AVC
Формат/Информация : Advanced Video Codec
Профиль формата : Main@L4.1
Параметр CABAC формата : Да
Параметр ReFrames формата : 12 кадров
Идентификатор кодека : V_MPEG4/ISO/AVC
Продолжительность : 6 м. 41 с.
Битрейт : 5575 Кбит/сек
Ширина : 1280] пикселей
Высота : 720 пикселей
Соотношение сторон : 16:9
Режим частоты кадров : Постоянный
Частота кадров : 29,970 кадров/сек
Цветовое пространство : YUV
Субдискретизация насыщенности : 4:2:0
Битовая глубина : 8 бит
Тип развёртки : MBAFF
Бит/(Пиксели*Кадры) : 0.202
Размер потока : 280 Мбайт (88%)
Библиотека кодирования : x264 core 116 r2019M 9cc407d
Настройки программы : cabac=1 / ref=12 / deblock=1:-1:-1 / analyse=0x1:0x130 / me=umh / subme=9 / psy=1 / psy_rd=0.40:0.15 / mixed_ref=1 / me_range=16 / chroma_me=1 / trellis=2 / 8x8dct=0 / cqm=0 / deadzone=21,11 / fast_pskip=1 / chroma_qp_offset=-3 / threads=10 / sliced_threads=0 / nr=10 / decimate=1 / interlaced=tff / bluray_compat=0 / constrained_intra=0 / bframes=12 / b_pyramid=0 / b_adapt=2 / b_bias=30 / direct=3 / weightb=1 / open_gop=0 / weightp=0 / keyint=290 / keyint_min=29 / scenecut=40 / intra_refresh=0 / rc_lookahead=40 / rc=2pass / mbtree=1 / bitrate=5575 / ratetol=1.0 / qcomp=0.60 / qpmin=10 / qpmax=51 / qpstep=4 / cplxblur=20.0 / qblur=0.5 / ip_ratio=1.40 / aq=1:0.60
Язык : English
Default : Да
Forced : Нет

Аудио
Идентификатор : 2
Формат : AC-3
Формат/Информация : Audio Coding 3
Расширение режима : CM (complete main)
Параметр Endianness формата : Big
Идентификатор кодека : A_AC3
Продолжительность : 6 м. 41 с.
Вид битрейта : Постоянный
Битрейт : 640 Кбит/сек
Каналы : 6 каналов
Расположение каналов : Front: L C R, Side: L R, LFE
Частота : 48,0 КГц
Битовая глубина : 16 бит
Метод сжатия : С потерями
Размер потока : 30,6 Мбайт (10%)
Язык : English
Default : Да
Forced : Нет







   Похожие торренты   Торрент   Размер 
В этой теме нет новых непрочитанных сообщений. Красоты Земли / Sony Bravia Beauty of Earth (2009) BDRip 1080p

0 | 2

637.63 МБ

В этой теме нет новых непрочитанных сообщений. Красоты Земли / Sony Bravia Beauty of Earth (2009) BDRip от HQ-ViDEO

0 | 1

95.03 МБ

В этой теме нет новых непрочитанных сообщений. Sony Bravia Demo Beauty of Earth [Revised Edition] (2009) Blu-Ray

0 | 3

26.1 ГБ

В этой теме нет новых непрочитанных сообщений. Чуждые Земли / Alien Earth (2009) HDTVRip 720p

0 | 2

1.11 ГБ

В этой теме нет новых непрочитанных сообщений. Дикая Планета: Черная Дыра Земли / Violent Earth: Earth`s Black Hole (2009) SATRip от Dizell and AndrewWhite

1 | 8

644.76 МБ

В этой теме нет новых непрочитанных сообщений. Салон красоты / Beauty Shop (2005) WEB-DL 720p | P, L1

68 | 11

3.6 ГБ

В этой теме нет новых непрочитанных сообщений. Человек с Земли / The Man from Earth (2007) BDRip 720p | P, A

127 | 11

6.34 ГБ




Вы не можете начинать темы
Вы не можете отвечать на сообщения
Вы не можете редактировать свои сообщения
Вы не можете удалять свои сообщения
Вы не можете добавлять вложения

Перейти:  
Для Мосгорсуда, Роскомнадзора и рекламодателей: mosgorsud-torrent[собачка]yandex.ru
 Вход
ppkBB3cker v.2 © 2008-2014 @ PPK
[ Time : 0.080s | 15 Queries | GZIP : Off ]

Торрент трекер RUTOR.IN, Не можете зайти на rutor.org? Какой новый адрес рутор? Какое зеркало рутор? Не работает rutor.org и зеркала? Тогда наш торрент специально для вас. Rutor.in неофициальное зеркало rutor. В случае если у Вас заблокирован rutor или вдруг Вы не можете на него зайти, то Вы без труда сможете скачать бесплатно и без рекламы последние новинки кино, игр, сериалов и прочего у нас, на Rutor.in. Не нужно использовать прокси, чтобы зайти на рутор, достаточно воспользоваться нашим ресурсом. Все новые фильмы, игры, сериалы, книги и музыка за 2013 и 2014 годы через торрент бесплатно. Скачивайте фильмы в хорошем качестве, игры для пк, xbox, playstation без регистрации. У нас вы найдете новые Зарубежные сериалы и Русские сериалы 2013, 2014, 2015 годов. Оставайтесь с нами, качайте любимые фильмы, игры, сериалы, книги и музыку.