img image001 image001 image001 image001 image001 image001 image001 image001 image001 image001 image001 image001 image001 image001 image001

Planets Sun Sun Sun
Статистика раздачи
Автор: PriZraK | Размер: 5.36 ГБ | Добавлен: 15 фев 2014
Раздают: 0    Качают: 2
Скачать торрент
Скачать торрент
Описание торрента

СообщениеДобавлено: 15 фев 2014 

Разговор с Председателем Правительства Российской Федерации Дмитрием Медведевым

Год выпуска: 2013
Страна: Россия
Жанр: Документальный
Продолжительность: 01:30:45
Перевод: Не требуется
Русские субтитры: нет

Описание: Глава правительства ответил на вопросы журналистов, представляющих пять ведущих телеканалов России, касающиеся самых актуальных тем, которые сейчас волнуют жителей страны. Премьер-министр России Дмитрий Медведев в рамках выступления перед журналистами подвёл итоги работы кабмина в 2013 году, а также поделился планами на будущее. «Разговор с Дмитрием Медведевым» состоялся в прямом эфире. Вопросы премьеру задавали Ирада Зейналова, представляющая Первый канал, Сергей Брилёв – ВГТРК, Вадим Такменев – НТВ, Марианна Максимовская – РЕН ТВ, Михаил Зыгарь – телеканал «Дождь».

Доп. информация: Релиз -


Рип чистый. Без посторонних надписей. Выкладывается как есть.

Качество: HDTV 1080i
Контейнер: TS
Видео кодек: AVC
Аудио кодек: AC3
Видео: 1920x1080 (16:9) 25.000 fps 7 839 Kbps, 0.151 bit/pixel
Аудио: MPEG Audio 48000Hz stereo 192 Кбит/сек





General
ID : 1 (0x1)
Complete name : D:ВыкладкаРазговор Дмитрием Медведевым (2013, Документальный, HDTV 1080i) (MYDIMKA).ts
Format : MPEG-TS
File size : 5.36 GiB
Duration : 1h 30mn
Overall bit rate mode : Variable
Overall bit rate : 8 451 Kbps

Video
ID : 2911 (0xB5F)
Menu ID : 1 (0x1)
Format : AVC
Format/Info : Advanced Video Codec
Format profile : High@L4.0
Format settings, CABAC : Yes
Format settings, ReFrames : 4 frames
Codec ID : 27
Duration : 1h 30mn
Bit rate : 7 839 Kbps
Width : 1 920 pixels
Height : 1 080 pixels
Display aspect ratio : 16:9
Frame rate : 25.000 fps
Color space : YUV
Chroma subsampling : 4:2:0
Bit depth : 8 bits
Scan type : MBAFF
Bits/(Pixel*Frame) : 0.151
Stream size : 4.97 GiB (93%)

Audio
ID : 2912 (0xB60)
Menu ID : 1 (0x1)
Format : MPEG Audio
Format version : Version 1
Format profile : Layer 2
Mode : Joint stereo
Mode extension : Intensity Stereo + MS Stereo
Codec ID : 3
Duration : 1h 30mn
Bit rate mode : Constant
Bit rate : 192 Kbps
Channel count : 2 channels
Sampling rate : 48.0 KHz
Compression mode : Lossy
Stream size : 125 MiB (2%)
Language : Russian



   Похожие торренты   Торрент   Размер 
В этой теме нет новых непрочитанных сообщений. Разговор с Председателем Правительства Российской Федерации Дмитрием Медведевым [Россия 1] [07.12] (2012) DVB

0 | 1

953.93 МБ

В этой теме нет новых непрочитанных сообщений. Познер. Интервью с Дмитрием Медведевым [эфир от 04.06] (2012) SATRip

2 | 2

638.47 МБ

В этой теме нет новых непрочитанных сообщений. Конституция Российской Федерации (2006) MP3

45 | 2

222.8 МБ

В этой теме нет новых непрочитанных сообщений. Уголовный кодекс Российской Федерации (2009) CHM

40 | 22

1.47 МБ

В этой теме нет новых непрочитанных сообщений. Конституция и государственная символика Российской Федерации (2009) PDF

3 | 8

8.09 МБ

В этой теме нет новых непрочитанных сообщений. Концерт ко дню спасателя Российской Федерации (2010) SATRip

0 | 2

1.17 ГБ

В этой теме нет новых непрочитанных сообщений. Все кодексы Российской Федерации [Консультант Плюс] (2012) FB2, RTF

206 | 10

92.67 МБ




Вы не можете начинать темы
Вы не можете отвечать на сообщения
Вы не можете редактировать свои сообщения
Вы не можете удалять свои сообщения
Вы не можете добавлять вложения

Перейти:  
Для Мосгорсуда, Роскомнадзора и рекламодателей: mosgorsud-torrent[собачка]yandex.ru
 Вход
ppkBB3cker v.2 © 2008-2014 @ PPK
[ Time : 0.561s | 17 Queries | GZIP : Off ]

Торрент трекер RUTOR.IN, Не можете зайти на rutor.org? Какой новый адрес рутор? Какое зеркало рутор? Не работает rutor.org и зеркала? Тогда наш торрент специально для вас. Rutor.in неофициальное зеркало rutor. В случае если у Вас заблокирован rutor или вдруг Вы не можете на него зайти, то Вы без труда сможете скачать бесплатно и без рекламы последние новинки кино, игр, сериалов и прочего у нас, на Rutor.in. Не нужно использовать прокси, чтобы зайти на рутор, достаточно воспользоваться нашим ресурсом. Все новые фильмы, игры, сериалы, книги и музыка за 2013 и 2014 годы через торрент бесплатно. Скачивайте фильмы в хорошем качестве, игры для пк, xbox, playstation без регистрации. У нас вы найдете новые Зарубежные сериалы и Русские сериалы 2013, 2014, 2015 годов. Оставайтесь с нами, качайте любимые фильмы, игры, сериалы, книги и музыку.