img image001 image001 image001 image001 image001 image001 image001 image001 image001 image001 image001 image001 image001 image001 image001

Planets Sun Sun Sun
Статистика раздачи
Автор: PriZraK | Размер: 31.13 ГБ | Добавлен: 15 фев 2014
Раздают: 0    Качают: 1
Скачать торрент
Скачать торрент
Описание торрента

СообщениеДобавлено: 15 фев 2014 

Битва Хоров. Сезон 02. Выпуск 01-08 (из ??)

Жанр: Pop, Тв-шоу
Продолжительность: 01:30:00 / выпуск
Год выпуска: 2013

Описание: Где поют лучше: в Московской, Челябинской или Ростовской области? А может, в Краснодарском или Алтайском крае? Прошлой осенью мы и 8 команд из 8 городов пели в унисон. Теперь они ездят по стране с гастролями, их узнают на улицах, а у нас - новые герои. Восемь суперзвезд российской эстрады выбрали лучших певцов, чтобы принять участие в новом сезоне супершоу "Битва хоров". По воскресеньям на телеканале "Россия" в прямом эфире более 150 замечательных голосов будут петь лучшие песни вживую, в надежде стать знаменитыми и понравиться телезрителям. Суперзвезды будут ежедневно заниматься с участниками вокалом, а танцы команде каждого города будет ставить легендарный Пол Домейн и его помощники. Все это для того, чтобы каждую неделю каждый регион показывал новый номер, новое шоу, которое в прямом эфире оценят телезрители. Победитель получит славу и звание “Лучший хор России”. В прошлом году зрители решили отдать этот титул Екатеринбургу. Кто же получит его в этом году?

В непростой борьбе примут участие коллективы и их наставники:

Татьяна Буланова и хор из Воронежской области
Доминик Джокер и хор Алтайского края
Олег Газманов и хор из Краснодарского края
Дмитрий Маликов и хор Москвы, Московской области и городов Золотого кольца
Жасмин и хор из Татарстана
Слава и хор из Ростовской области
Виктор Дробыш и хор из Санкт-Петербурга и Ленинградской области
Михаил Бублик и хор из Челябинской области

Ведущие: Валерий Меладзе, Наталья Стефаненко, Потап
Доп. информация: Релиз -


Рип чистый. Без посторонних надписей. Выкладывается как есть.

Качество: HDTVRip 720p
Контейнер: MKV
Видео кодек: H.264
Аудио кодек: AC3
Видео: 1280x720 (16:9) 25.000 fps ~ 4 800 Kbps, 0.187 bit/pixel
Аудио: AC3, 384 Кбит/сек







General
Unique ID : 217482342299486727615282021408505778037 (0xA39D9356A7C4AC3784F93E1488A6CF75)
Complete name : D:ВыкладкаБитва Хоров. Сезон 02 (2013, Pop, Тв-шоу, HDTVRip 720p) (MYDIMKA)1 выпуск (27.10.2013).mkv
Format : Matroska
Format version : Version 2
File size : 3.49 GiB
Duration : 1h 33mn
Overall bit rate : 5 333 Kbps
Encoded date : UTC 2013-10-28 01:53:57
Writing application : mkvmerge v5.8.0 ('No Sleep / Pillow') built on Sep 2 2012 15:37:04
Writing library : libebml v1.2.3 + libmatroska v1.3.0

Video
ID : 1
Format : AVC
Format/Info : Advanced Video Codec
Format profile : High@L4.0
Format settings, CABAC : Yes
Format settings, ReFrames : 8 frames
Codec ID : V_MPEG4/ISO/AVC
Duration : 1h 33mn
Bit rate : 4 843 Kbps
Width : 1 280 pixels
Height : 720 pixels
Display aspect ratio : 16:9
Frame rate mode : Constant
Frame rate : 25.000 fps
Color space : YUV
Chroma subsampling : 4:2:0
Bit depth : 8 bits
Scan type : Progressive
Bits/(Pixel*Frame) : 0.210
Stream size : 3.17 GiB (91%)
Writing library : x264 core 125 r2208 d9d2288
Encoding settings : cabac=1 / ref=8 / deblock=1:-1:-1 / analyse=0x3:0x133 / me=umh / subme=7 / psy=1 / psy_rd=1.00:0.10 / mixed_ref=1 / me_range=16 / chroma_me=1 / trellis=2 / 8x8dct=1 / cqm=0 / deadzone=21,11 / fast_pskip=0 / chroma_qp_offset=-3 / threads=12 / lookahead_threads=2 / sliced_threads=0 / nr=0 / decimate=1 / interlaced=0 / bluray_compat=0 / constrained_intra=0 / bframes=3 / b_pyramid=2 / b_adapt=2 / b_bias=0 / direct=3 / weightb=1 / open_gop=0 / weightp=2 / keyint=250 / keyint_min=25 / scenecut=40 / intra_refresh=0 / rc_lookahead=50 / rc=crf / mbtree=1 / crf=21.0 / qcomp=0.60 / qpmin=0 / qpmax=69 / qpstep=4 / ip_ratio=1.40 / aq=1:1.00
Default : Yes
Forced : No

Audio
ID : 2
Format : AC-3
Format/Info : Audio Coding 3
Mode extension : CM (complete main)
Format settings, Endianness : Big
Codec ID : A_AC3
Duration : 1h 33mn
Bit rate mode : Constant
Bit rate : 384 Kbps
Channel count : 2 channels
Channel positions : Front: L R
Sampling rate : 48.0 KHz
Bit depth : 16 bits
Compression mode : Lossy
Stream size : 258 MiB (7%)
Default : Yes
Forced : No



   Похожие торренты   Торрент   Размер 
В этой теме нет новых непрочитанных сообщений. Битва Хоров. Сезон 02. [Выпуск 01-09] (2013) HDTVRip

0 | 38

13.87 ГБ

В этой теме нет новых непрочитанных сообщений. Битва Хоров. Сезон 01. Выпуск - 03. (Московский эфир) (2012) SATRip

0 | 1

1.19 ГБ

В этой теме нет новых непрочитанных сообщений. Битва Хоров. Сезон 01. Выпуск - 01. (Московский эфир) (2012) SATRip

0 | 1

985.14 МБ

В этой теме нет новых непрочитанных сообщений. Битва Хоров. Сезон 01. Выпуск - 02. (Московский эфир) (2012) SATRip

0 | 1

1.05 ГБ

В этой теме нет новых непрочитанных сообщений. Битва Хоров. Сезон 01. Выпуск - 06. (Московский эфир) (2012) SATRip

0 | 1

1.2 ГБ

В этой теме нет новых непрочитанных сообщений. Битва Хоров. Сезон 01. Выпуск - 07. (Московский эфир) (2012) SATRip

0 | 1

1.21 ГБ

В этой теме нет новых непрочитанных сообщений. Битва Хоров. Сезон 01. Выпуск - 08. (Московский эфир) (2012) SATRip

0 | 1

1.23 ГБ




Вы не можете начинать темы
Вы не можете отвечать на сообщения
Вы не можете редактировать свои сообщения
Вы не можете удалять свои сообщения
Вы не можете добавлять вложения

Перейти:  
Для Мосгорсуда, Роскомнадзора и рекламодателей: mosgorsud-torrent[собачка]yandex.ru
 Вход
ppkBB3cker v.2 © 2008-2014 @ PPK
[ Time : 1.895s | 14 Queries | GZIP : Off ]

Торрент трекер RUTOR.IN, Не можете зайти на rutor.org? Какой новый адрес рутор? Какое зеркало рутор? Не работает rutor.org и зеркала? Тогда наш торрент специально для вас. Rutor.in неофициальное зеркало rutor. В случае если у Вас заблокирован rutor или вдруг Вы не можете на него зайти, то Вы без труда сможете скачать бесплатно и без рекламы последние новинки кино, игр, сериалов и прочего у нас, на Rutor.in. Не нужно использовать прокси, чтобы зайти на рутор, достаточно воспользоваться нашим ресурсом. Все новые фильмы, игры, сериалы, книги и музыка за 2013 и 2014 годы через торрент бесплатно. Скачивайте фильмы в хорошем качестве, игры для пк, xbox, playstation без регистрации. У нас вы найдете новые Зарубежные сериалы и Русские сериалы 2013, 2014, 2015 годов. Оставайтесь с нами, качайте любимые фильмы, игры, сериалы, книги и музыку.