img image001 image001 image001 image001 image001 image001 image001 image001 image001 image001 image001 image001 image001 image001 image001

Planets Sun Sun Sun
Статистика раздачи
Автор: PriZraK | Размер: 19.72 ГБ | Добавлен: 15 фев 2014
Раздают: 0    Качают: 1
Скачать торрент
Скачать торрент
Описание торрента

СообщениеДобавлено: 15 фев 2014 

Пресс-конференция Президента РФ Владимира Путина

Год выпуска: 2013
Страна: Россия
Студия: Первый канал, ВГТРК
Жанр: Документальный
Продолжительность: 04:04:15
Перевод: Не требуется
Русские субтитры: нет

Описание: Прямая трансляция большой пресс-конференции президента РФ Владимира Путина, в ходе которой он отвечает на вопросы представителей СМИ об экономике, политическом курсе страны и развитии социальной сферы.

Доп. информация: Релиз -


Рип чистый. Без посторонних надписей. Выкладывается как есть.

Качество: HDTV 1080i
Контейнер: TS
Видео кодек: AVC
Аудио кодек: AC3
Видео: 1920x1080 (16:9) 25.000 fps 10.8 Mbps, 0.208 bit/pixel
Аудио: MPEG Audio 48000Hz stereo 192 Кбит/сек




GeneralID : 1 (0x1)Complete name : I:ВЫКЛАДКАПресс-конференция Президента РФ Владимира Путина (2013, Документальный, HDTV 1080i) (MYDIMKA).tsFormat : MPEG-TSFile size : 19.7 GiBDuration : 4h 4mnOverall bit rate mode : VariableOverall bit rate : 11.6 Mbps

VideoID : 305 (0x131)Menu ID : 1 (0x1)Format : AVCFormat/Info : Advanced Video CodecFormat profile : High@L4.0Format settings, CABAC : YesFormat settings, ReFrames : 3 framesCodec ID : 27Duration : 4h 4mnBit rate : 10.8 MbpsWidth : 1 920 pixelsHeight : 1 080 pixelsDisplay aspect ratio : 16:9Frame rate : 25.000 fpsStandard : ComponentColor space : YUVChroma subsampling : 4:2:0Bit depth : 8 bitsScan type : InterlacedScan order : Top Field FirstBits/(Pixel*Frame) : 0.208Stream size : 18.4 GiB (93%)Color primaries : BT.709Transfer characteristics : BT.709Matrix coefficients : BT.709

AudioID : 405 (0x195)Menu ID : 1 (0x1)Format : MPEG AudioFormat version : Version 1Format profile : Layer 2Codec ID : 3Duration : 4h 4mnBit rate mode : ConstantBit rate : 192 KbpsChannel count : 2 channelsSampling rate : 48.0 KHzCompression mode : LossyStream size : 335 MiB (2%)Language : English



   Похожие торренты   Торрент   Размер 
В этой теме нет новых непрочитанных сообщений. Пресс-конференция Президента России В. В. Путина [Эфир от 19.12] (2013) IPTV

0 | 1

2.7 ГБ

В этой теме нет новых непрочитанных сообщений. Пресс-конференция Президента России В. В. Путина [Эфир от 20.12.2012] (2012) SATRip от РиперАМ

0 | 2

3.24 ГБ

В этой теме нет новых непрочитанных сообщений. Пресс-конференция Президента Российской Федерации В.В. Путина [20.12] (2012) DVB

0 | 2

8.4 ГБ

В этой теме нет новых непрочитанных сообщений. Пресс-конференция Президента Российской Федерации Владимира Путина [18.12] (2014) SATRip

138 | 5

2.55 ГБ

В этой теме нет новых непрочитанных сообщений. Пресс-конференция Президента РБ А.Г.Лукашенко СМИ регионов России [Телеверсия] (2012) DVBRip

0 | 1

456.05 МБ

В этой теме нет новых непрочитанных сообщений. Новогоднее обращение президента России В.В. Путина (2013) HDTVRip 720p

3 | 4

123.47 МБ

В этой теме нет новых непрочитанных сообщений. Новогоднее обращение президента России В.В. Путина (2014) SATRip

0 | 8

213.19 МБ




Вы не можете начинать темы
Вы не можете отвечать на сообщения
Вы не можете редактировать свои сообщения
Вы не можете удалять свои сообщения
Вы не можете добавлять вложения

Перейти:  
Для Мосгорсуда, Роскомнадзора и рекламодателей: mosgorsud-torrent[собачка]yandex.ru
 Вход
ppkBB3cker v.2 © 2008-2014 @ PPK
[ Time : 0.587s | 15 Queries | GZIP : Off ]

Торрент трекер RUTOR.IN, Не можете зайти на rutor.org? Какой новый адрес рутор? Какое зеркало рутор? Не работает rutor.org и зеркала? Тогда наш торрент специально для вас. Rutor.in неофициальное зеркало rutor. В случае если у Вас заблокирован rutor или вдруг Вы не можете на него зайти, то Вы без труда сможете скачать бесплатно и без рекламы последние новинки кино, игр, сериалов и прочего у нас, на Rutor.in. Не нужно использовать прокси, чтобы зайти на рутор, достаточно воспользоваться нашим ресурсом. Все новые фильмы, игры, сериалы, книги и музыка за 2013 и 2014 годы через торрент бесплатно. Скачивайте фильмы в хорошем качестве, игры для пк, xbox, playstation без регистрации. У нас вы найдете новые Зарубежные сериалы и Русские сериалы 2013, 2014, 2015 годов. Оставайтесь с нами, качайте любимые фильмы, игры, сериалы, книги и музыку.
cron