img image001 image001 image001 image001 image001 image001 image001 image001 image001 image001 image001 image001 image001 image001 image001

Planets Sun Sun Sun
Статистика раздачи
Автор: PriZraK | Размер: 119.73 МБ | Добавлен: 15 фев 2014
Раздают: 5    Качают: 2
Скачать торрент
Скачать торрент
Описание торрента

СообщениеДобавлено: 15 фев 2014 

Avicii - Wake Me Up



Страна: Швеция
Жанр: Progressive House
Продолжительность: 00:04:32
Год выпуска: 2013 г.
Лейбл: Universal Music

Описание: Тим Берглинг — шведский диджей и музыкальный продюсер, наиболее известный под сценическим именем Ави́чи. Он также использовал псевдонимы Тим Берг и Том Хангс.

Треклист: Avicii - Wake Me Up

Разбивка на главы по трекам: нет
Качество : HDTVRip Исходник свой рип
Формат: AVI
Видео кодек: XVID 7.3
Аудио кодек: AC3
Видео: 720x304 (2.37:1), 23.976 fps, XviD build 73 ~3484 kbps avg, 0.66 bit/pixel
Аудио: 48 kHz, AC3 Dolby Digital, 2/0 (L,R) ch, ~192 kbps
Код:
Общее
Полное имя                               : C:UsersDeadmauvladDesktopРелизы На выкладкуAvicii - Wake Me Up.HDTVRip.Deadmauvlad.avi
Формат                                   : AVI
Формат/Информация                        : Audio Video Interleave
Размер файла                             : 120 Мбайт
Продолжительность                        : 4 м. 32 с.
Общий поток                              : 3687 Кбит/сек
Программа кодирования                    : VirtualDubMod 1.5.10.3 | www.virtualdub-fr.org || (build 2550/release)
Библиотека кодирования                   : VirtualDubMod build 2550/release

Видео
Идентификатор                            : 0
Формат                                   : MPEG-4 Visual
Профиль формата                          : Advanced Simple@L5
Параметр BVOP формата                    : 1
Параметр QPel формата                    : Нет
Параметр GMC формата                     : Без точки перехода
Параметр матрицы формата                 : Default (MPEG)
Идентификатор кодека                     : XVID
Идентификатор кодека/Подсказка           : XviD
Продолжительность                        : 4 м. 32 с.
Битрейт                                  : 3485 Кбит/сек
Ширина                                   : 720 пикселей
Высота                                   : 304 пикселя
Соотношение сторон                       : 2,35:1
Частота кадров                           : 23,976 кадра/сек
Цветовое пространство                    : YUV
Субдискретизация насыщенности            : 4:2:0
Битовая глубина                          : 8 бит
Тип развёртки                            : Прогрессивная
Метод сжатия                             : С потерями
Бит/(Пиксели*Кадры)                      : 0.664
Размер потока                            : 113 Мбайт (95%)
Библиотека кодирования                   : XviD 73

Аудио
Идентификатор                            : 1
Формат                                   : AC-3
Формат/Информация                        : Audio Coding 3
Расширение режима                        : CM (complete main)
Параметр Endianness формата              : Big
Идентификатор кодека                     : 2000
Продолжительность                        : 4 м. 32 с.
Вид битрейта                             : Постоянный
Битрейт                                  : 192 Кбит/сек
Каналы                                   : 2 канала
Расположение каналов                     : Front: L R
Частота                                  : 48,0 КГц
Битовая глубина                          : 16 бит
Метод сжатия                             : С потерями
Размер потока                            : 6,24 Мбайт (5%)
Выравнивание                             : Разделение по промежуткам
Продолжительность промежутка             : 42  мс. (1,00 видеокадр)
Время предзагрузки промежутка            : 500  мс.





   Похожие торренты   Торрент   Размер 
В этой теме нет новых непрочитанных сообщений. Avicii - Wake Me Up [клип] (2013) HDTV 1080i от Deadmauvlad

29 | 5

152.06 МБ

В этой теме нет новых непрочитанных сообщений. Avicii - TRUE [Avicii by Avicii] (2014) FLAC

76 | 8

364.61 МБ

В этой теме нет новых непрочитанных сообщений. Ionel Istrati - Wake me up [клип] (2013) UHDRip 1080p | 60 fps от Kamikkadze

30 | 9

443.67 МБ

В этой теме нет новых непрочитанных сообщений. Avicii - Fade Into Darkness [Клип] (2011) HDRip 1080p

1 | 2

64.02 МБ

В этой теме нет новых непрочитанных сообщений. Avicii - True (Avicii By Avicii) (2014) MP3

420 | 43

116.64 МБ

В этой теме нет новых непрочитанных сообщений. Radio Killer Be Free [клип] (2012) HDTVRip от Deadmauvlad

15 | 11

65.12 МБ

В этой теме нет новых непрочитанных сообщений. Винтаж feat Kirill Clash - Play (Клип) (2014) HDTVRip От Deadmauvlad

53 | 10

77.03 МБ




Вы не можете начинать темы
Вы не можете отвечать на сообщения
Вы не можете редактировать свои сообщения
Вы не можете удалять свои сообщения
Вы не можете добавлять вложения

Перейти:  
Для Мосгорсуда, Роскомнадзора и рекламодателей: mosgorsud-torrent[собачка]yandex.ru
 Вход
ppkBB3cker v.2 © 2008-2014 @ PPK
[ Time : 2.468s | 15 Queries | GZIP : On ]

Торрент трекер RUTOR.IN, Не можете зайти на rutor.org? Какой новый адрес рутор? Какое зеркало рутор? Не работает rutor.org и зеркала? Тогда наш торрент специально для вас. Rutor.in неофициальное зеркало rutor. В случае если у Вас заблокирован rutor или вдруг Вы не можете на него зайти, то Вы без труда сможете скачать бесплатно и без рекламы последние новинки кино, игр, сериалов и прочего у нас, на Rutor.in. Не нужно использовать прокси, чтобы зайти на рутор, достаточно воспользоваться нашим ресурсом. Все новые фильмы, игры, сериалы, книги и музыка за 2013 и 2014 годы через торрент бесплатно. Скачивайте фильмы в хорошем качестве, игры для пк, xbox, playstation без регистрации. У нас вы найдете новые Зарубежные сериалы и Русские сериалы 2013, 2014, 2015 годов. Оставайтесь с нами, качайте любимые фильмы, игры, сериалы, книги и музыку.