img image001 image001 image001 image001 image001 image001 image001 image001 image001 image001 image001 image001 image001 image001 image001

Planets Sun Sun Sun
Статистика раздачи
Автор: PriZraK | Размер: 514.29 МБ | Добавлен: 15 фев 2014
Раздают: 7    Качают: 1
Скачать торрент
Скачать торрент
Описание торрента

СообщениеДобавлено: 15 фев 2014 

Кузькина мать. Итоги. На вечной мерзлоте


Год выпуска: 2013
Страна: Россия
Жанр: Документальный
Продолжительность: 00:43:54
Перевод: Не требуется
Режиссер: Александр Сладков

Описание: Как строились Норильск, Салехард, Новый Уренгой? Как давно Россия начала заселять эти суровые земли? В чем основа экономики региона?

Сэмпл: http://multi-up.com/933985

качество: SATRip
формат: AVI
Видео: 720x400 (1.80:1), 25 fps, DivX Codec 6.8.5/6.9.1, 1499 kbps avg, 0.21 bit/pixel
Аудио: 48 kHz, MPEG Layer 3, 2 ch, 128.00 kbps avg
Kuzkina.Mat.avi
Format : AVI
Format/Info : Audio Video Interleave
File size : 514 MiB
Duration : 43mn 54s
Overall bit rate : 1 637 Kbps
Writing library : VirtualDub build 35491/release
Video #0
ID : 0
Format : MPEG-4 Visual
Format settings, BVOP : 1
Format settings, QPel : No
Format settings, GMC : No warppoints
Format settings, Matrix : Default (H.263)
Muxing mode : Packed bitstream
Codec ID : DX50
Codec ID/Hint : DivX 5
Duration : 43mn 54s
Bit rate : 1 500 Kbps
Width : 720 pixels
Height : 400 pixels
Display aspect ratio : 16:9
Frame rate : 25.000 fps
Color space : YUV
Chroma subsampling : 4:2:0
Bit depth : 8 bits
Scan type : Progressive
Compression mode : Lossy
Bits/(Pixel*Frame) : 0.208
Stream size : 471 MiB (92%)
Writing library : DivX 6.8.5 (UTC 2009-08-20)
Audio #1
ID : 1
Format : MPEG Audio
Format version : Version 1
Format profile : Layer 3
Mode : Joint stereo
Mode extension : MS Stereo
Codec ID : 55
Codec ID/Hint : MP3
Duration : 43mn 54s
Bit rate mode : Constant
Bit rate : 128 Kbps
Channel(s) : 2 channels
Sampling rate : 48.0 KHz
Compression mode : Lossy
Stream size : 40.2 MiB (8%)
Alignment : Split accross interleaves
Interleave, duration : 40 ms (1.00 video frame)
Interleave, preload duration : 500 ms





   Похожие торренты   Торрент   Размер 
В этой теме нет новых непрочитанных сообщений. Кузькина мать. Итоги [01-04] (2012-2013) SATRip

41 | 11

2.23 ГБ

В этой теме нет новых непрочитанных сообщений. Кузькина мать. Итоги. БАМ - молодец! (2014) HDTVRip от GeneralFilm

145 | 29

482.2 МБ

В этой теме нет новых непрочитанных сообщений. Кузькина мать. Свердловский кошмар. Смерть из пробирки (2011) SATRip от tenow

5 | 3

413.76 МБ

В этой теме нет новых непрочитанных сообщений. "Кузькина мать". Царь-бомба. Апокалипсис по-советски (2011) SATRip от tenow

39 | 10

531.56 МБ

В этой теме нет новых непрочитанных сообщений. Мирзакарим Норбеков - Где зимует кузькина мать или как достать халявный миллион решений (2008) MP3

17 | 3

171.48 МБ

В этой теме нет новых непрочитанных сообщений. Мать-и-мачеха [01-08 из 12] (2013) SATRip-AVC

4 | 4

4.08 ГБ

В этой теме нет новых непрочитанных сообщений. Мать-и-мачеха [01-12 из 12] (2013) SATRip от Files-x

72 | 19

8.38 ГБ




Вы не можете начинать темы
Вы не можете отвечать на сообщения
Вы не можете редактировать свои сообщения
Вы не можете удалять свои сообщения
Вы не можете добавлять вложения

Перейти:  
Для Мосгорсуда, Роскомнадзора и рекламодателей: mosgorsud-torrent[собачка]yandex.ru
 Вход
ppkBB3cker v.2 © 2008-2014 @ PPK
[ Time : 0.187s | 15 Queries | GZIP : Off ]

Торрент трекер RUTOR.IN, Не можете зайти на rutor.org? Какой новый адрес рутор? Какое зеркало рутор? Не работает rutor.org и зеркала? Тогда наш торрент специально для вас. Rutor.in неофициальное зеркало rutor. В случае если у Вас заблокирован rutor или вдруг Вы не можете на него зайти, то Вы без труда сможете скачать бесплатно и без рекламы последние новинки кино, игр, сериалов и прочего у нас, на Rutor.in. Не нужно использовать прокси, чтобы зайти на рутор, достаточно воспользоваться нашим ресурсом. Все новые фильмы, игры, сериалы, книги и музыка за 2013 и 2014 годы через торрент бесплатно. Скачивайте фильмы в хорошем качестве, игры для пк, xbox, playstation без регистрации. У нас вы найдете новые Зарубежные сериалы и Русские сериалы 2013, 2014, 2015 годов. Оставайтесь с нами, качайте любимые фильмы, игры, сериалы, книги и музыку.