img image001 image001 image001 image001 image001 image001 image001 image001 image001 image001 image001 image001 image001 image001 image001

Planets Sun Sun Sun
Статистика раздачи
Автор: PriZraK | Размер: 16.08 ГБ | Добавлен: 15 фев 2014
Раздают: 0    Качают: 1
Скачать торрент
Скачать торрент
Описание торрента

СообщениеДобавлено: 15 фев 2014 

Повтори! Первый сезон. Выпуск 01-06 (Из ??)

Год выпуска: 2013
Страна: Россия
Жанр: Юмор, Тв-шоу
Продолжительность: 02:00:00
Перевод: Не требуется
Русские субтитры: нет

Описание: Шоу «Повтори!» – это шоу перевоплощений, где в пародийных конкурсах сойдутся 10 участников. На суд зрителей и профессионального жюри будут представлены пародии на известных актеров, телеведущих, политиков и звезд шоу-бизнеса. На звание мастера пародий претендуют: Нонна Гришаева, Александр Олешко, Елена Воробей, Михаил Грушевский, Валерий Пономаренко, Анна Большова, Камиль Ларин, Валерия Ланская, Даниил Щебланов, Марк Тишман. Бои пройдут в категориях: «Эстрада», «Музыкальная пародия», «Лицо с обложки», «Телефонный розыгрыш» и т.д. В каждом выпуске соревнования будут проходить в пяти жанрах. Каждый конкурсный день артисты, согласно жребию, разбиваются на пары: каждая пара представит номера в одном из пяти пародийных жанров. Таким образом, судьям не придется сравнивать эстрадный монолог Жванецкого с песней Тамары Гвердцители. Каждая дуэль оценивается членами жюри: каждое «да» от судей добавляет в копилку участника 1 балл. Эти оценки, складываясь от вечера к вечеру, и составят общий результат, с которым участник подойдет к финалу. Кроме того, в конце каждого конкурсного дня у судей есть возможность распределить «бонусный балл», которым он может дополнительно поощрить любого артиста. Сергей Бурунов, известный по блестящим пародиям в «Большой разнице», взял на себя роль наставника участников турнира, помогая им в работе над образами.
Доп. информация: Релиз -


Рип чистый. Без посторонних надписей. Выкладывается как есть.

Качество: HDTVRip 720p
Контейнер: MKV
Видео кодек: H.264
Аудио кодек: AC3
Видео: 1280x720 (16:9) 25.000 fps ~ 3 800 Kbps, 0.143 bit/pixel
Аудио: AC3, 384 Кбит/сек





GeneralUnique ID : 174524519354513780554517955519835764477 (0x834C332523E5716F89EDC51FD02B76FD)Complete name : D:ВыкладкаПовтори! Первый сезон (2013, Юмор, Тв-шоу, HDTVRip 720p) (MYDIMKA)1 выпуск (03.11.2013).mkvFormat : MatroskaFormat version : Version 2File size : 3.06 GiBDuration : 1h 57mnOverall bit rate : 3 743 KbpsEncoded date : UTC 2013-11-04 03:07:34Writing application : mkvmerge v5.8.0 ('No Sleep / Pillow') built on Sep 2 2012 15:37:04Writing library : libebml v1.2.3 + libmatroska v1.3.0

VideoID : 1Format : AVCFormat/Info : Advanced Video CodecFormat profile : High@L4.0Format settings, CABAC : YesFormat settings, ReFrames : 8 framesCodec ID : V_MPEG4/ISO/AVCDuration : 1h 57mnBit rate : 3 284 KbpsWidth : 1 280 pixelsHeight : 720 pixelsDisplay aspect ratio : 16:9Frame rate mode : ConstantFrame rate : 25.000 fpsColor space : YUVChroma subsampling : 4:2:0Bit depth : 8 bitsScan type : ProgressiveBits/(Pixel*Frame) : 0.143Stream size : 2.69 GiB (88%)Writing library : x264 core 125 r2208 d9d2288Encoding settings : cabac=1 / ref=8 / deblock=1:-1:-1 / analyse=0x3:0x133 / me=umh / subme=7 / psy=1 / psy_rd=1.00:0.10 / mixed_ref=1 / me_range=16 / chroma_me=1 / trellis=2 / 8x8dct=1 / cqm=0 / deadzone=21,11 / fast_pskip=0 / chroma_qp_offset=-3 / threads=12 / lookahead_threads=2 / sliced_threads=0 / nr=0 / decimate=1 / interlaced=0 / bluray_compat=0 / constrained_intra=0 / bframes=3 / b_pyramid=2 / b_adapt=2 / b_bias=0 / direct=3 / weightb=1 / open_gop=0 / weightp=2 / keyint=250 / keyint_min=25 / scenecut=40 / intra_refresh=0 / rc_lookahead=50 / rc=crf / mbtree=1 / crf=21.0 / qcomp=0.60 / qpmin=0 / qpmax=69 / qpstep=4 / ip_ratio=1.40 / aq=1:1.00Default : YesForced : No

AudioID : 2Format : AC-3Format/Info : Audio Coding 3Mode extension : CM (complete main)Format settings, Endianness : BigCodec ID : A_AC3Duration : 1h 57mnBit rate mode : ConstantBit rate : 384 KbpsChannel count : 2 channelsChannel positions : Front: L RSampling rate : 48.0 KHzBit depth : 16 bitsCompression mode : LossyStream size : 322 MiB (10%)Default : YesForced : No



   Похожие торренты   Торрент   Размер 
В этой теме нет новых непрочитанных сообщений. Повтори! Первый сезон [Выпуск 01-08] (2013) HDTVRip

0 | 3

14.33 ГБ

В этой теме нет новых непрочитанных сообщений. Повтори! Первый сезон [Выпуск 01-08] (2013) HDTV 1080i

0 | 2

67.73 ГБ

В этой теме нет новых непрочитанных сообщений. Успеть до полуночи. Первый (1) сезон. [Выпуск 01-10] (2013) SATRip

0 | 1

4.88 ГБ

В этой теме нет новых непрочитанных сообщений. Битва Хоров. Сезон 02. [Выпуск 01-08] (2013) HDTVRip 720p

0 | 1

31.13 ГБ

В этой теме нет новых непрочитанных сообщений. Танцуй. Первый сезон. Выпуск 02 [эфир от 21.02] (2015) SATRemux от -=HD-NET=-

101 | 10

2.43 ГБ

В этой теме нет новых непрочитанных сообщений. Живой звук. Первый сезон [Выпуски 01-12] (2013) HDTVRip

2 | 3

14.79 ГБ

В этой теме нет новых непрочитанных сообщений. Битва Хоров. Сезон 02. [Выпуск 01-09] (2013) HDTVRip

0 | 38

13.87 ГБ




Вы не можете начинать темы
Вы не можете отвечать на сообщения
Вы не можете редактировать свои сообщения
Вы не можете удалять свои сообщения
Вы не можете добавлять вложения

Перейти:  
Для Мосгорсуда, Роскомнадзора и рекламодателей: mosgorsud-torrent[собачка]yandex.ru
 Вход
ppkBB3cker v.2 © 2008-2014 @ PPK
[ Time : 0.068s | 14 Queries | GZIP : Off ]

Торрент трекер RUTOR.IN, Не можете зайти на rutor.org? Какой новый адрес рутор? Какое зеркало рутор? Не работает rutor.org и зеркала? Тогда наш торрент специально для вас. Rutor.in неофициальное зеркало rutor. В случае если у Вас заблокирован rutor или вдруг Вы не можете на него зайти, то Вы без труда сможете скачать бесплатно и без рекламы последние новинки кино, игр, сериалов и прочего у нас, на Rutor.in. Не нужно использовать прокси, чтобы зайти на рутор, достаточно воспользоваться нашим ресурсом. Все новые фильмы, игры, сериалы, книги и музыка за 2013 и 2014 годы через торрент бесплатно. Скачивайте фильмы в хорошем качестве, игры для пк, xbox, playstation без регистрации. У нас вы найдете новые Зарубежные сериалы и Русские сериалы 2013, 2014, 2015 годов. Оставайтесь с нами, качайте любимые фильмы, игры, сериалы, книги и музыку.