img image001 image001 image001 image001 image001 image001 image001 image001 image001 image001 image001 image001 image001 image001 image001

Planets Sun Sun Sun
Статистика раздачи
Автор: PriZraK | Размер: 13.87 ГБ | Добавлен: 15 фев 2014
Раздают: 0    Качают: 38
Скачать торрент
Скачать торрент
Описание торрента

СообщениеДобавлено: 15 фев 2014 

Битва Хоров. Сезон 02. Выпуск 01-09 (из ??)

Страна: Россия
Жанр: Pop, Show
Продолжительность: 01:30:00 / выпуск
Год выпуска: 2013

Описание: Где поют лучше: в Московской, Челябинской или Ростовской области? А может, в Краснодарском или Алтайском крае? Прошлой осенью мы и 8 команд из 8 городов пели в унисон. Теперь они ездят по стране с гастролями, их узнают на улицах, а у нас - новые герои. Восемь суперзвезд российской эстрады выбрали лучших певцов, чтобы принять участие в новом сезоне супершоу "Битва хоров". По воскресеньям на телеканале "Россия" в прямом эфире более 150 замечательных голосов будут петь лучшие песни вживую, в надежде стать знаменитыми и понравиться телезрителям. Суперзвезды будут ежедневно заниматься с участниками вокалом, а танцы команде каждого города будет ставить легендарный Пол Домейн и его помощники. Все это для того, чтобы каждую неделю каждый регион показывал новый номер, новое шоу, которое в прямом эфире оценят телезрители. Победитель получит славу и звание “Лучший хор России”. В прошлом году зрители решили отдать этот титул Екатеринбургу. Кто же получит его в этом году?

В непростой борьбе примут участие коллективы и их наставники:

Татьяна Буланова и хор из Воронежской области
Доминик Джокер и хор Алтайского края
Олег Газманов и хор из Краснодарского края
Дмитрий Маликов и хор Москвы, Московской области и городов Золотого кольца
Жасмин и хор из Татарстана
Слава и хор из Ростовской области
Виктор Дробыш и хор из Санкт-Петербурга и Ленинградской области
Михаил Бублик и хор из Челябинской области

Ведущие: Валерий Меладзе, Наталья Стефаненко, Потап
Доп. информация: Релиз -


Рип чистый. Без посторонних надписей. Выкладывается как есть.

Качество: HDTVRip
Формат: AVI
Видео кодек: XVID
Аудио кодек: MP2
Видео: 720x400 (16:9) 25.000 fps 1 850 Kbps, 0.256 bit/pixel
Аудио: MPEG Audio, 48000Hz, 2 channels, 192 Кбит/сек








General
Complete name : D:ВыкладкаБитва Хоров. Сезон 02 (2013, Pop, Тв-шоу, HDTVRip) (MYDIMKA)1 выпуск (27.10.2013).avi
Format : AVI
Format/Info : Audio Video Interleave
File size : 1.34 GiB
Duration : 1h 33mn
Overall bit rate : 2 048 Kbps
Writing application : VirtualDubMod 1.5.10.3 | www.virtualdub-fr.org || (build 2550/release)
Writing library : VirtualDubMod build 2550/release

Video
ID : 0
Format : MPEG-4 Visual
Format profile : Advanced Simple@L5
Format settings, BVOP : 2
Format settings, QPel : No
Format settings, GMC : No warppoints
Format settings, Matrix : Default (H.263)
Codec ID : XVID
Codec ID/Hint : XviD
Duration : 1h 33mn
Bit rate : 1 846 Kbps
Width : 720 pixels
Height : 400 pixels
Display aspect ratio : 16:9
Frame rate : 25.000 fps
Color space : YUV
Chroma subsampling : 4:2:0
Bit depth : 8 bits
Scan type : Progressive
Compression mode : Lossy
Bits/(Pixel*Frame) : 0.256
Stream size : 1.21 GiB (90%)
Writing library : XviD 1.2.1 (UTC 2008-12-04)

Audio
ID : 1
Format : MPEG Audio
Format version : Version 1
Format profile : Layer 3
Codec ID : 55
Codec ID/Hint : MP3
Duration : 1h 33mn
Bit rate mode : Constant
Bit rate : 192 Kbps
Channel count : 2 channels
Sampling rate : 48.0 KHz
Compression mode : Lossy
Stream size : 129 MiB (9%)
Alignment : Aligned on interleaves
Interleave, duration : 40 ms (1.00 video frame)
Interleave, preload duration : 504 ms
Writing library : LAME3.99r
Encoding settings : -m s -V 4 -q 2 -lowpass 18.6 -b 192



   Похожие торренты   Торрент   Размер 
В этой теме нет новых непрочитанных сообщений. Битва Хоров. Сезон 02. [Выпуск 01-08] (2013) HDTVRip 720p

0 | 1

31.13 ГБ

В этой теме нет новых непрочитанных сообщений. Битва Хоров. Сезон 01. Выпуск - 04. (Московский эфир) (2012) SATRip

0 | 1

1.12 ГБ

В этой теме нет новых непрочитанных сообщений. Битва Хоров. Сезон 01. Выпуск - 03. (Московский эфир) (2012) SATRip

0 | 1

1.19 ГБ

В этой теме нет новых непрочитанных сообщений. Битва Хоров. Сезон 01. Выпуск - 05. (Московский эфир) (2012) SATRip

2 | 1

1.19 ГБ

В этой теме нет новых непрочитанных сообщений. Битва Хоров. Сезон 01. Выпуск - 02. (Московский эфир) (2012) SATRip

0 | 1

1.05 ГБ

В этой теме нет новых непрочитанных сообщений. Битва Хоров. Сезон 01. Выпуск - 07. (Московский эфир) (2012) SATRip

0 | 1

1.21 ГБ

В этой теме нет новых непрочитанных сообщений. Битва Хоров. Сезон 01. Выпуск - 09. (Московский эфир) (2012) SATRip

1 | 2

1.13 ГБ




Вы не можете начинать темы
Вы не можете отвечать на сообщения
Вы не можете редактировать свои сообщения
Вы не можете удалять свои сообщения
Вы не можете добавлять вложения

Перейти:  
Для Мосгорсуда, Роскомнадзора и рекламодателей: mosgorsud-torrent[собачка]yandex.ru
 Вход
ppkBB3cker v.2 © 2008-2014 @ PPK
[ Time : 0.024s | 16 Queries | GZIP : On ]

Торрент трекер RUTOR.IN, Не можете зайти на rutor.org? Какой новый адрес рутор? Какое зеркало рутор? Не работает rutor.org и зеркала? Тогда наш торрент специально для вас. Rutor.in неофициальное зеркало rutor. В случае если у Вас заблокирован rutor или вдруг Вы не можете на него зайти, то Вы без труда сможете скачать бесплатно и без рекламы последние новинки кино, игр, сериалов и прочего у нас, на Rutor.in. Не нужно использовать прокси, чтобы зайти на рутор, достаточно воспользоваться нашим ресурсом. Все новые фильмы, игры, сериалы, книги и музыка за 2013 и 2014 годы через торрент бесплатно. Скачивайте фильмы в хорошем качестве, игры для пк, xbox, playstation без регистрации. У нас вы найдете новые Зарубежные сериалы и Русские сериалы 2013, 2014, 2015 годов. Оставайтесь с нами, качайте любимые фильмы, игры, сериалы, книги и музыку.