img image001 image001 image001 image001 image001 image001 image001 image001 image001 image001 image001 image001 image001 image001 image001

Planets Sun Sun Sun
Статистика раздачи
Автор: PriZraK | Размер: 8.86 ГБ | Добавлен: 15 фев 2014
Раздают: 1    Качают: 4
Скачать торрент
Скачать торрент
Описание торрента

СообщениеДобавлено: 15 фев 2014 

Голос (The Voice). Второй (2) сезон. За кадром. Выпуск 01-14 (Из ??)

Год выпуска: 2013
Страна: Россия
Жанр: Документальный
Продолжительность: 00:50:00 / выпуск
Перевод: Не требуется
Русские субтитры: нет

Описание: Почти одновременно с премьерой нового сезона конкурса "Голос" зрители Первого увидят премьеру документального цикла "Голос. За кадром", который будет сопровождать музыкальный проект от стадии предварительных кастингов и вплоть до финала. Эксклюзивный контент, снятый на бэкстейдже, а также самые любопытные мгновения конкурса, не вошедшие в эфир – все это обеспечит полное погружение в непередаваемую атмосферу телепроекта, ставшего в прошлом году самым популярным в России! Заявки на участие в "Голосе-2" подали более 10 тысяч человек. После первичного отбора в кастинге приняли участие чуть больше 1 тысячи вокалистов из всех регионов России, а также из Италии, Латвии, Мальдивских островов, США, Израиля, Грузии, Узбекистана, Азербайджана, Украины и Белоруссии. В итоге комиссия отобрала 150 человек для фирменных "слепых прослушиваний". Репетиции, переживания перед выходом на сцену, напутствия от родных и друзей, слезы тех, кому не повезло, и радость тех, кто прошел дальше… А затем выбор нового музыкального материала, снова репетиции, но уже вместе с наставниками, музыкальные дуэли на выбывание… Взаимоотношения конкурсантов со своими тренерами и конкурентами, их творческий рост по ходу проекта, детали подготовки новых выступлений… И наконец уже ставшие знаменитыми "живые" концерты "Голоса", в которых зрители в ходе прямого голосования решают, кому уйти, а кому остаться… Ничто не укроется от внимания съемочных групп "Голоса. За кадром"!

Источник: собственный рип

Доп. информация: Релиз -


Рип чистый. Без посторонних надписей. Выкладывается как есть.

Качество: HDTVRip
Формат: AVI
Видео кодек: XVID
Аудио кодек: MP3
Видео: 720x400 (16:9) 23.976 fps 2 100 Kbps, 0.279 bit/pixel
Аудио: MPEG Audio, 48000Hz, 2 channels, 192 Кбит/сек






GeneralComplete name : D:ВыкладкаГолос (The Voice). Второй сезон За кадром (2013, Pop, Show, HDTVRip) (MYDIMKA)1 выпуск (07.09.2013) (MYDIMKA).aviFormat : AVIFormat/Info : Audio Video InterleaveFile size : 608 MiBDuration : 39mn 59sOverall bit rate : 2 127 KbpsWriting application : VirtualDubMod 1.5.10.3 | www.virtualdub-fr.org || (build 2550/release)Writing library : VirtualDubMod build 2550/release

VideoID : 0Format : MPEG-4 VisualFormat profile : Advanced Simple@L5Format settings, BVOP : 2Format settings, QPel : NoFormat settings, GMC : No warppointsFormat settings, Matrix : Default (H.263)Muxing mode : Packed bitstreamCodec ID : XVIDCodec ID/Hint : XviDDuration : 39mn 59sBit rate : 1 926 KbpsWidth : 720 pixelsHeight : 400 pixelsDisplay aspect ratio : 16:9Frame rate : 23.976 fpsColor space : YUVChroma subsampling : 4:2:0Bit depth : 8 bitsScan type : ProgressiveCompression mode : LossyBits/(Pixel*Frame) : 0.279Stream size : 551 MiB (91%)Writing library : XviD 1.2.1 (UTC 2008-12-04)

AudioID : 1Format : MPEG AudioFormat version : Version 1Format profile : Layer 3Codec ID : 55Codec ID/Hint : MP3Duration : 39mn 59sBit rate mode : ConstantBit rate : 192 KbpsChannel(s) : 2 channelsSampling rate : 48.0 KHzCompression mode : LossyStream size : 54.9 MiB (9%)Alignment : Aligned on interleavesInterleave, duration : 42 ms (1.00 video frame)Interleave, preload duration : 504 msWriting library : LAME3.99rEncoding settings : -m s -V 4 -q 2 -lowpass 18.6 -b 192



   Похожие торренты   Торрент   Размер 
В этой теме нет новых непрочитанных сообщений. Голос. Второй сезон. За кадром [Выпуски 01-14] (2013) HDTV 1080i

0 | 2

37.51 ГБ

В этой теме нет новых непрочитанных сообщений. Голос. Второй сезон [Выпуски 01-17 из 17] (2013) HDTVRip

5 | 8

30.33 ГБ

В этой теме нет новых непрочитанных сообщений. Голос. Второй сезон [Выпуски 01-17] (2013) HDTVRip 720p

3 | 3

43.02 ГБ

В этой теме нет новых непрочитанных сообщений. Голос. Второй сезон [Выпуски 01-17] (2013) SATRip

33 | 8

26.72 ГБ

В этой теме нет новых непрочитанных сообщений. Голос. Второй сезон [Выпуски 01-17 из 17] (2013) HDTV 1080i

1 | 2

140.62 ГБ

В этой теме нет новых непрочитанных сообщений. Голос. Второй сезон [Выпуски 01-09] (2013) HDTV 1080i

1 | 2

65.17 ГБ

В этой теме нет новых непрочитанных сообщений. Голос. Второй сезон [Выпуск 12] (2013) SATRip

1 | 2

1.23 ГБ




Вы не можете начинать темы
Вы не можете отвечать на сообщения
Вы не можете редактировать свои сообщения
Вы не можете удалять свои сообщения
Вы не можете добавлять вложения

Перейти:  
Для Мосгорсуда, Роскомнадзора и рекламодателей: mosgorsud-torrent[собачка]yandex.ru
 Вход
ppkBB3cker v.2 © 2008-2014 @ PPK
[ Time : 0.048s | 14 Queries | GZIP : Off ]

Торрент трекер RUTOR.IN, Не можете зайти на rutor.org? Какой новый адрес рутор? Какое зеркало рутор? Не работает rutor.org и зеркала? Тогда наш торрент специально для вас. Rutor.in неофициальное зеркало rutor. В случае если у Вас заблокирован rutor или вдруг Вы не можете на него зайти, то Вы без труда сможете скачать бесплатно и без рекламы последние новинки кино, игр, сериалов и прочего у нас, на Rutor.in. Не нужно использовать прокси, чтобы зайти на рутор, достаточно воспользоваться нашим ресурсом. Все новые фильмы, игры, сериалы, книги и музыка за 2013 и 2014 годы через торрент бесплатно. Скачивайте фильмы в хорошем качестве, игры для пк, xbox, playstation без регистрации. У нас вы найдете новые Зарубежные сериалы и Русские сериалы 2013, 2014, 2015 годов. Оставайтесь с нами, качайте любимые фильмы, игры, сериалы, книги и музыку.