img image001 image001 image001 image001 image001 image001 image001 image001 image001 image001 image001 image001 image001 image001 image001

Planets Sun Sun Sun
Статистика раздачи
Автор: PriZraK | Размер: 37.51 ГБ | Добавлен: 15 фев 2014
Раздают: 0    Качают: 2
Скачать торрент
Скачать торрент
Описание торрента

СообщениеДобавлено: 15 фев 2014 

Голос (The Voice). Второй (2) сезон. Выпуск 01-14 (Из ??)

Год выпуска: 2013
Страна: Россия
Жанр: Документальный
Продолжительность: 00:45:00 / выпуск
Перевод: Не требуется
Русские субтитры: нет

Описание: Почти одновременно с премьерой нового сезона конкурса "Голос" зрители Первого увидят премьеру документального цикла "Голос. За кадром", который будет сопровождать музыкальный проект от стадии предварительных кастингов и вплоть до финала. Эксклюзивный контент, снятый на бэкстейдже, а также самые любопытные мгновения конкурса, не вошедшие в эфир – все это обеспечит полное погружение в непередаваемую атмосферу телепроекта, ставшего в прошлом году самым популярным в России! Заявки на участие в "Голосе-2" подали более 10 тысяч человек. После первичного отбора в кастинге приняли участие чуть больше 1 тысячи вокалистов из всех регионов России, а также из Италии, Латвии, Мальдивских островов, США, Израиля, Грузии, Узбекистана, Азербайджана, Украины и Белоруссии. В итоге комиссия отобрала 150 человек для фирменных "слепых прослушиваний". Репетиции, переживания перед выходом на сцену, напутствия от родных и друзей, слезы тех, кому не повезло, и радость тех, кто прошел дальше… А затем выбор нового музыкального материала, снова репетиции, но уже вместе с наставниками, музыкальные дуэли на выбывание… Взаимоотношения конкурсантов со своими тренерами и конкурентами, их творческий рост по ходу проекта, детали подготовки новых выступлений… И наконец уже ставшие знаменитыми "живые" концерты "Голоса", в которых зрители в ходе прямого голосования решают, кому уйти, а кому остаться… Ничто не укроется от внимания съемочных групп "Голоса. За кадром"!

Источник: собственный рип

Доп. информация: Релиз -


Рип чистый. Без посторонних надписей. Выкладывается как есть.

Качество: HDTV 1080i
Контейнер: TS
Видео кодек: AVC
Аудио кодек: MP2
Видео: 1920x1080 (16:9) 25.000 fps 7 703 Kbps, 0.149 bit/pixel
Аудио: MPEG Audio 48000Hz stereo 192 Кбит/сек










General
ID : 1 (0x1)
Complete name : D:ВыкладкаГолос (The Voice). Второй сезон За кадром (2013, Pop, Show, HDTV 1080i) (MYDIMKA)1 выпуск (07.09.2013) (MYDIMKA).ts
Format : MPEG-TS
File size : 2.32 GiB
Duration : 39mn 59s
Overall bit rate mode : Variable
Overall bit rate : 8 308 Kbps

Video
ID : 69 (0x45)
Menu ID : 1 (0x1)
Format : AVC
Format/Info : Advanced Video Codec
Format profile : High@L4.0
Format settings, CABAC : Yes
Format settings, ReFrames : 3 frames
Format settings, GOP : M=4, N=28
Codec ID : 27
Duration : 39mn 59s
Bit rate : 7 703 Kbps
Width : 1 920 pixels
Height : 1 080 pixels
Display aspect ratio : 16:9
Frame rate : 25.000 fps
Standard : Component
Color space : YUV
Chroma subsampling : 4:2:0
Bit depth : 8 bits
Scan type : Interlaced
Scan order : Top Field First
Bits/(Pixel*Frame) : 0.149
Stream size : 2.15 GiB (93%)
Color primaries : BT.709
Transfer characteristics : BT.709
Matrix coefficients : BT.709

Audio
ID : 68 (0x44)
Menu ID : 1 (0x1)
Format : MPEG Audio
Format version : Version 1
Format profile : Layer 2
Codec ID : 3
Duration : 39mn 59s
Bit rate mode : Constant
Bit rate : 192 Kbps
Channel(s) : 2 channels
Sampling rate : 48.0 KHz
Compression mode : Lossy
Stream size : 54.9 MiB (2%)
Language : English



   Похожие торренты   Торрент   Размер 
В этой теме нет новых непрочитанных сообщений. Голос. Второй сезон. За кадром [Выпуски 01-14] (2013) HDTVRip

1 | 4

8.86 ГБ

В этой теме нет новых непрочитанных сообщений. Голос. Второй сезон [Выпуски 01-09] (2013) HDTV 1080i

1 | 2

65.17 ГБ

В этой теме нет новых непрочитанных сообщений. Голос. Второй сезон [Выпуски 01-17 из 17] (2013) HDTV 1080i

1 | 2

140.62 ГБ

В этой теме нет новых непрочитанных сообщений. Голос. Второй сезон [Выпуски 01-17 из 17] (2013) HDTVRip

5 | 8

30.33 ГБ

В этой теме нет новых непрочитанных сообщений. Голос. Второй сезон [Выпуски 01-17] (2013) SATRip

33 | 8

26.72 ГБ

В этой теме нет новых непрочитанных сообщений. Голос. Второй сезон [Выпуски 01-17] (2013) HDTVRip 720p

3 | 3

43.02 ГБ

В этой теме нет новых непрочитанных сообщений. Голос. Второй сезон [Выпуск 12] (2013) SATRip

1 | 2

1.23 ГБ




Вы не можете начинать темы
Вы не можете отвечать на сообщения
Вы не можете редактировать свои сообщения
Вы не можете удалять свои сообщения
Вы не можете добавлять вложения

Перейти:  
Для Мосгорсуда, Роскомнадзора и рекламодателей: mosgorsud-torrent[собачка]yandex.ru
 Вход
ppkBB3cker v.2 © 2008-2014 @ PPK
[ Time : 0.042s | 15 Queries | GZIP : Off ]

cron