img image001 image001 image001 image001 image001 image001 image001 image001 image001 image001 image001 image001 image001 image001 image001

Planets Sun Sun Sun
Статистика раздачи
Автор: PriZraK | Размер: 7.29 ГБ | Добавлен: 15 фев 2014
Раздают: 47    Качают: 7
Скачать торрент
Скачать торрент
Описание торрента

СообщениеДобавлено: 15 фев 2014 

Информация о фильме
Название: МастерШеф Россия
Год выхода: 2013
Жанр: ТВ-шоу, кулинария
Режиссер: Сергей Айрапетов, Феликс Михайлов
Ведущие: Аркадий Новиков, Мирко Дзаго, Александр Соркин

О фильме:
16 участников, прошедших сложный этап отборочных туров столкнутся в борьбе за звание МастерШефа и внушительный денежный приз. Эмоции и накал страстей превысят температуру раскаленной посуды. Участникам необходимо будет противостоять завистливым взглядам коллег и их мелким пакостям, чтобы добиться признания настоящих профессионалов и компетентного жюри. Вести проект и оценивать участников будут 3 авторитетных и именитых судьи, чьи имена широко известны в ресторанном бизнесе - Аркадий Новиков, Мирко Дзаго и Александр Соркин
Страна: Россия
Студия: СТС
Продолжительность: 12 x ~ 00:50:00
Перевод: Не требуется

Файл
Кодек: DivX / MP3
Качество: SATRip
Видео: DivX 5, 720x400 (16:9), 25.000 fps, 1 499 Kbps (0.208 bit/pixel)
Звук: MP3, 48.0 KHz, 2 ch, 128 Kbps, CBR

General
Complete name : /МастерШеф Россия/Masterchef.Russia.01.SATRip.avi
Format : AVI
Format/Info : Audio Video Interleave
File size : 790 MiB
Duration : 1h 7mn
Overall bit rate : 1 636 Kbps
Writing application : TMPGEnc Video Mastering Works 5 Version. 5.0.6.38
Writing library : VirtualDub build 29808/release

Video
ID : 0
Format : MPEG-4 Visual
Format settings, BVOP : 1
Format settings, QPel : No
Format settings, GMC : No warppoints
Format settings, Matrix : Default (H.263)
Muxing mode : Packed bitstream
Codec ID : DX50
Codec ID/Hint : DivX 5
Duration : 1h 7mn
Bit rate : 1 499 Kbps
Width : 720 pixels
Height : 400 pixels
Display aspect ratio : 16:9
Frame rate : 25.000 fps
Color space : YUV
Chroma subsampling : 4:2:0
Bit depth : 8 bits
Scan type : Progressive
Compression mode : Lossy
Bits/(Pixel*Frame) : 0.208
Stream size : 724 MiB (92%)
Writing library : DivX 6.8.5 (UTC 2009-08-20)

Audio
ID : 1
Format : MPEG Audio
Format version : Version 1
Format profile : Layer 3
Mode : Joint stereo
Codec ID : 55
Codec ID/Hint : MP3
Duration : 1h 7mn
Bit rate mode : Constant
Bit rate : 128 Kbps
Channel(s) : 2 channels
Sampling rate : 48.0 KHz
Compression mode : Lossy
Stream size : 61.8 MiB (8%)
Alignment : Split accross interleaves
Interleave, duration : 40 ms (1.00 video frame)
Interleave, preload duration : 500 ms



   Похожие торренты   Торрент   Размер 
В этой теме нет новых непрочитанных сообщений. МастерШеф [01-12 из 12] (2013) WEB-DLRip от GeneralFilm | Россия | КПК

5 | 2

2.45 ГБ

В этой теме нет новых непрочитанных сообщений. МастерШеф. Дети / МастерШеф. Діти [02x19-36] (2017) WEBRip от Lyossik

0 | 0

24.34 ГБ

В этой теме нет новых непрочитанных сообщений. МастерШеф. Дети / МастерШеф. Діти [02x19-26] (2017) WEB-DLRip от Lyossik

0 | 0

11.22 ГБ

В этой теме нет новых непрочитанных сообщений. МастерШеф. Дети / МастерШеф. Діти [02x01-18] (2017) WEBRip от Lyossik

0 | 0

27.21 ГБ

В этой теме нет новых непрочитанных сообщений. МастерШеф. Дети / МастерШеф. Діти [02x19-30] (2017) WEB-DLRip от Lyossik

0 | 0

16.54 ГБ

В этой теме нет новых непрочитанных сообщений. МастерШеф: дети / MasterChef: junior [04x01-12 из 12] (2016) SATRip от Generalfilm

0 | 0

5.5 ГБ

В этой теме нет новых непрочитанных сообщений. Чемпионат мира по легкой атлетике 2013. Москва (Россия). День 7. Вечер. Россия 2 [16.08] (2013) SATRip

0 | 2

2.38 ГБ




Вы не можете начинать темы
Вы не можете отвечать на сообщения
Вы не можете редактировать свои сообщения
Вы не можете удалять свои сообщения
Вы не можете добавлять вложения

Перейти:  
Для Мосгорсуда, Роскомнадзора и рекламодателей: mosgorsud-torrent[собачка]yandex.ru
 Вход
ppkBB3cker v.2 © 2008-2014 @ PPK
[ Time : 2.619s | 18 Queries | GZIP : Off ]

Торрент трекер RUTOR.IN, Не можете зайти на rutor.org? Какой новый адрес рутор? Какое зеркало рутор? Не работает rutor.org и зеркала? Тогда наш торрент специально для вас. Rutor.in неофициальное зеркало rutor. В случае если у Вас заблокирован rutor или вдруг Вы не можете на него зайти, то Вы без труда сможете скачать бесплатно и без рекламы последние новинки кино, игр, сериалов и прочего у нас, на Rutor.in. Не нужно использовать прокси, чтобы зайти на рутор, достаточно воспользоваться нашим ресурсом. Все новые фильмы, игры, сериалы, книги и музыка за 2013 и 2014 годы через торрент бесплатно. Скачивайте фильмы в хорошем качестве, игры для пк, xbox, playstation без регистрации. У нас вы найдете новые Зарубежные сериалы и Русские сериалы 2013, 2014, 2015 годов. Оставайтесь с нами, качайте любимые фильмы, игры, сериалы, книги и музыку.
cron