img image001 image001 image001 image001 image001 image001 image001 image001 image001 image001 image001 image001 image001 image001 image001

Planets Sun Sun Sun
Статистика раздачи
Автор: PriZraK | Размер: 95.79 МБ | Добавлен: 15 фев 2014
Раздают: 9    Качают: 3
Скачать торрент
Скачать торрент
Описание торрента

СообщениеДобавлено: 15 фев 2014 

Информация о фильме
Оригинальное название: Play (Игра)
Год выпуска: 2014
Жанр Клип, 16+
Стиль: Pop
О Группе:
«Винтаж» — российская поп-группа, в состав которой входят певица Анна Плетнёва и певец, композитор и саунд-продюсер Алексей Романоф. Ранее в состав группы входили танцовщицы Мия и Светлана Иванова

Участники Анна Юрьевна Плетнёва, Алексей Романов

Выпущено: Россия
Продолжительность: 00:03:46
Файл
Качество: HDTV 1080i | (Чистый Рип Без логотипов !!!)
Формат: MPEG-TS
Видео: 1980x1080 (16:9), 50 fps, AVC (High@L4.1) ~8748 Кбит/сек , 0.75 bit/pixel
Аудио: 48 kHz, AC3 Dolby Digital, 2/0 (L,R) ch, ~384 kbps



Общее
Идентификатор : 1 (0x1)
Полное имя : C:UsersDeadmauvladDesktopРелизы На выкладкуВинтаж .feat.Kirill.Clash.Play.HDTV.1080.Deadmauvlad.ts
Формат : MPEG-TS
Размер файла : 95,8 Мбайт
Продолжительность : 3 м. 46 с.
Режим общего битрейта : Переменный
Общий поток : 8748 Кбит/сек
Максимальный общий битрейт : 35,5 Мбит/сек

Видео
Идентификатор : 4113 (0x1011)
Идентификатор меню : 1 (0x1)
Формат : AVC
Формат/Информация : Advanced Video Codec
Профиль формата : High@L4.1
Параметр CABAC формата : Да
Параметр ReFrames формата : 1 кадр
Идентификатор кодека : 27
Продолжительность : 3 м. 46 с.
Вид битрейта : Переменный
Битрейт : 8748 Кбит/сек
Максимальный битрейт : 40,0 Мбит/сек
Ширина : 1920 пикселей
Высота : 1080 пикселей
Соотношение сторон : 16:9
Режим частоты кадров : 59,940 кадров/сек
Цветовое пространство : YUV
Субдискретизация насыщенности : 4:2:0
Битовая глубина : 8 бит
Тип развёртки : Прогрессивная
Размер потока : 82,3 Мбайт (86%)
Язык : English

Аудио
Идентификатор : 4352 (0x1100)
Идентификатор меню : 1 (0x1)
Формат : MPEG Audio
Версия формата : Version 1
Профиль формата : Layer 2
Идентификатор кодека : 4
Продолжительность : 3 м. 46 с.
Вид битрейта : Постоянный
Битрейт : 320 Кбит/сек
Каналы : 2 канала
Частота : 44,1 КГц
Метод сжатия : С потерями
Размер потока : 8,65 Мбайт (9%)




   Похожие торренты   Торрент   Размер 
В этой теме нет новых непрочитанных сообщений. Винтаж feat Kirill Clash - Play (Клип) (2014) HDTVRip От Deadmauvlad

53 | 10

77.03 МБ

В этой теме нет новых непрочитанных сообщений. DJ SMASH feat.Винтаж - Москва [клип] (2012) HDTVRip

50 | 4

65.9 МБ

В этой теме нет новых непрочитанных сообщений. Jennifer Lopez Feat. Lil wayne - I'm Into You [клип] (2011) HDTV 1080i

1 | 3

473.8 МБ

В этой теме нет новых непрочитанных сообщений. Avicii - Wake Me Up [клип] (2013) HDTV 1080i от Deadmauvlad

29 | 5

152.06 МБ

В этой теме нет новых непрочитанных сообщений. David Guetta feat. Ne-Yo-Akon - Play Hard [Клип] (2012) WEB-DLRip 720

10 | 4

44.68 МБ

В этой теме нет новых непрочитанных сообщений. Shakira feat. Dizzee Rascal - Loca [Клип] (2010) HDTVRip 1080i

9 | 5

451.4 МБ

В этой теме нет новых непрочитанных сообщений. Katy Perry Feat. Snoop Dogg - California Girls [клип] (2010) HDRip 1080i

68 | 17

140.23 МБ




Вы не можете начинать темы
Вы не можете отвечать на сообщения
Вы не можете редактировать свои сообщения
Вы не можете удалять свои сообщения
Вы не можете добавлять вложения

Перейти:  
Для Мосгорсуда, Роскомнадзора и рекламодателей: mosgorsud-torrent[собачка]yandex.ru
 Вход
ppkBB3cker v.2 © 2008-2014 @ PPK
[ Time : 0.020s | 15 Queries | GZIP : Off ]

Торрент трекер RUTOR.IN, Не можете зайти на rutor.org? Какой новый адрес рутор? Какое зеркало рутор? Не работает rutor.org и зеркала? Тогда наш торрент специально для вас. Rutor.in неофициальное зеркало rutor. В случае если у Вас заблокирован rutor или вдруг Вы не можете на него зайти, то Вы без труда сможете скачать бесплатно и без рекламы последние новинки кино, игр, сериалов и прочего у нас, на Rutor.in. Не нужно использовать прокси, чтобы зайти на рутор, достаточно воспользоваться нашим ресурсом. Все новые фильмы, игры, сериалы, книги и музыка за 2013 и 2014 годы через торрент бесплатно. Скачивайте фильмы в хорошем качестве, игры для пк, xbox, playstation без регистрации. У нас вы найдете новые Зарубежные сериалы и Русские сериалы 2013, 2014, 2015 годов. Оставайтесь с нами, качайте любимые фильмы, игры, сериалы, книги и музыку.