img image001 image001 image001 image001 image001 image001 image001 image001 image001 image001 image001 image001 image001 image001 image001

Planets Sun Sun Sun
Статистика раздачи
Автор: PriZraK | Размер: 679.34 МБ | Добавлен: 15 фев 2014
Раздают: 0    Качают: 6
Скачать торрент
Скачать торрент
Описание торрента

СообщениеДобавлено: 15 фев 2014 

Оригинальное название: Икона
Год выпуска: 2012
Жанр: Документальный
Выпущено: Россия
Режиссер: Фёдор Кудряшов
Продолжительность: 00:51:22
О фильме:
Так, что же такое икона? Икона — это не картина, икона — это святой образ. По выражению русских религиозных философов, икона — это окно, помогающее человеку во время молитвы взглянуть в горний, то есть высший мир.
Иконописное искусство имеет свои изобразительные законы и художественные средства. На иконе, как правило, нет уходящего вглубь пространства. Или, например, одно и то же здание может быть показано и снаружи, и изнутри. На одной иконе могут изображаться разновременные события. Каждый жест имеет символическое значение, каждая краска и каждая линия на иконе также не случайны — они отражают духовные закономерности иконописи.
По словам священника Павла Флоренского, святая икона и святая жизнь - есть нечто, "имеющее иную реальность",
в иной плоскости бытия пребывающее.

Качество: HDTVRip
Видео: XviD, 1849 Кбит/с, 720x400
Аудио: AC3, 2 ch, 192 Кбит/с

Общее
Полное имя : Икона (2012).avi
Формат : AVI
Формат/Информация : Audio Video Interleave
Размер файла : 679 Мбайт
Продолжительность : 51 м.
Общий поток : 1849 Кбит/сек
Программа кодирования : VirtualDubMod 1.5.10.3 | www.virtualdub-fr.org || (build 2550/release)
Библиотека кодирования : VirtualDubMod build 2550/release

Видео
Идентификатор : 0
Формат : MPEG-4 Visual
Профиль формата : Advanced Simple@L5
Параметр BVOP формата : 2
Параметр QPel формата : Нет
Параметр GMC формата : Без точки перехода
Параметр матрицы формата : Выборочная
Идентификатор кодека : XVID
Идентификатор кодека/Подсказка : XviD
Продолжительность : 51 м.
Битрейт : 1647 Кбит/сек
Ширина : 720 пикселей
Высота : 400 пикселей
Соотношение сторон : 16:9
Частота кадров : 25,000 кадров/сек
Цветовое пространство : YUV
Субдискретизация насыщенности : 4:2:0
Битовая глубина : 8 бит
Тип развёртки : Прогрессивная
Метод сжатия : С потерями
Бит/(Пиксели*Кадры) : 0.229
Размер потока : 605 Мбайт (89%)
Библиотека кодирования : XviD 1.2.1 (UTC 2008-12-04)

Аудио
Идентификатор : 1
Формат : AC-3
Формат/Информация : Audio Coding 3
Расширение режима : CM (complete main)
Параметр Endianness формата : Big
Идентификатор кодека : 2000
Продолжительность : 51 м.
Вид битрейта : Постоянный
Битрейт : 192 Кбит/сек
Каналы : 2 канала
Расположение каналов : Front: L R
Частота : 48,0 КГц
Битовая глубина : 16 бит
Метод сжатия : С потерями
Размер потока : 70,6 Мбайт (10%)
Выравнивание : Разделение по промежуткам
Продолжительность промежутка : 40 мс. (1,00 видеокадр)
Время предзагрузки промежутка : 500 мс.



   Похожие торренты   Торрент   Размер 
В этой теме нет новых непрочитанных сообщений. Икона (2012) HDTVRip

21 | 4

1.37 ГБ

В этой теме нет новых непрочитанных сообщений. Икона (2012) HDTVRip

8 | 2

746.71 МБ

В этой теме нет новых непрочитанных сообщений. Икона (2012) HDTVRip от Generalfilm

176 | 10

679.34 МБ

В этой теме нет новых непрочитанных сообщений. Тихвинская Икона. Возвращение (2015) HDTVRip 720p

44 | 8

1.59 ГБ

В этой теме нет новых непрочитанных сообщений. Тихвинская икона. Возвращение (2015) HDTVRip от GeneralFilm

122 | 4

551.11 МБ

В этой теме нет новых непрочитанных сообщений. Икона сезона (2013) WEB-DL 720p

2 | 2

2.43 ГБ

В этой теме нет новых непрочитанных сообщений. Икона сезона (2013) DVDRip

10 | 6

745.43 МБ




Вы не можете начинать темы
Вы не можете отвечать на сообщения
Вы не можете редактировать свои сообщения
Вы не можете удалять свои сообщения
Вы не можете добавлять вложения

Перейти:  
Для Мосгорсуда, Роскомнадзора и рекламодателей: mosgorsud-torrent[собачка]yandex.ru
 Вход
ppkBB3cker v.2 © 2008-2014 @ PPK
[ Time : 0.022s | 17 Queries | GZIP : On ]

Торрент трекер RUTOR.IN, Не можете зайти на rutor.org? Какой новый адрес рутор? Какое зеркало рутор? Не работает rutor.org и зеркала? Тогда наш торрент специально для вас. Rutor.in неофициальное зеркало rutor. В случае если у Вас заблокирован rutor или вдруг Вы не можете на него зайти, то Вы без труда сможете скачать бесплатно и без рекламы последние новинки кино, игр, сериалов и прочего у нас, на Rutor.in. Не нужно использовать прокси, чтобы зайти на рутор, достаточно воспользоваться нашим ресурсом. Все новые фильмы, игры, сериалы, книги и музыка за 2013 и 2014 годы через торрент бесплатно. Скачивайте фильмы в хорошем качестве, игры для пк, xbox, playstation без регистрации. У нас вы найдете новые Зарубежные сериалы и Русские сериалы 2013, 2014, 2015 годов. Оставайтесь с нами, качайте любимые фильмы, игры, сериалы, книги и музыку.