img image001 image001 image001 image001 image001 image001 image001 image001 image001 image001 image001 image001 image001 image001 image001

Planets Sun Sun Sun
Статистика раздачи
Автор: PriZraK | Размер: 745.14 МБ | Добавлен: 15 фев 2014
Раздают: 0    Качают: 2
Скачать торрент
Скачать торрент
Описание торрента

СообщениеДобавлено: 15 фев 2014 

Наименование: Сделка с Ксенией Собчак
Категория: Тв-Шоу, Викторина
Год выпуска: 2014
Продолжительность: 00:48:34
Произведено: Россия, Пятница TV
В главных ролях: Ксения Собчак

О фильме:
Нет для русского человека большей радости, чем сделать москвича. Поэтому мы назвали нашу программу «Сделка». Пришло время москвичу держать ответ. Ответ на вопросы, которые вы зададите ему сами. Вы присылаете вопрос. Ксения Анатольевна Собчак в гипермаркете. Если москвич ответил правильно – он получает деньги за свои покупки обратно. Если нет, его покупки уходят автору вопроса.
Файл
Кодек: XviD (7.3)
Качество: WEB-DLRip
Видео: 720x400 (1.80:1), 25 fps, XviD build 73 ~2006 kbps avg, 0.28 bit/pixel
Звук: 48 kHz, AC3 Dolby Digital, 2/0 (L,R) ch, ~128 kbps

Общее
Полное имя : D:Рипы выкладка [Deadmauvlad]Сделка.с.Ксенией.Собчак.Выпуск № 30 .WEB-DLRip.Deadmauvlad.avi
Формат : AVI
Формат/Информация : Audio Video Interleave
Размер файла : 745 Мбайт
Продолжительность : 48 м.
Общий поток : 2145 Кбит/сек
Название фильма : Сделка.с.Ксенией.Собчак.Выпуск № 30 .WEB-DLRip.Deadmauvlad
Режиссёр : Deadmauvlad
Жанр : Викторина
Программа кодирования : VirtualDubMod 1.5.10.3 | www.virtualdub-fr.org || (build 2550/release)
Формат оригинала/Имя : ТВ Шоу
Правообладатель : Goldenshara

Видео
Идентификатор : 0
Формат : MPEG-4 Visual
Профиль формата : Advanced Simple@L5
Параметр BVOP формата : 2
Параметр QPel формата : Да
Параметр GMC формата : Без точки перехода
Параметр матрицы формата : Default (MPEG)
Идентификатор кодека : XVID
Идентификатор кодека/Подсказка : XviD
Продолжительность : 48 м.
Битрейт : 2007 Кбит/сек
Ширина : 720 пикселей
Высота : 400 пикселей
Соотношение сторон : 16:9
Частота кадров : 25,000 кадров/сек
Цветовое пространство : YUV
Субдискретизация насыщенности : 4:2:0
Битовая глубина : 8 бит
Тип развёртки : Прогрессивная
Метод сжатия : С потерями
Бит/(Пиксели*Кадры) : 0.279
Размер потока : 697 Мбайт (94%)
Библиотека кодирования : XviD 73

Аудио
Идентификатор : 1
Формат : AC-3
Формат/Информация : Audio Coding 3
Расширение режима : CM (complete main)
Параметр Endianness формата : Big
Идентификатор кодека : 2000
Продолжительность : 48 м.
Вид битрейта : Постоянный
Битрейт : 128 Кбит/сек
Каналы : 2 канала
Расположение каналов : Front: L R
Частота : 48,0 КГц
Битовая глубина : 16 бит
Метод сжатия : С потерями
Размер потока : 44,5 Мбайт (6%)
Выравнивание : Разделение по промежуткам
Продолжительность промежутка : 40 мс. (1,00 видеокадр)
Время предзагрузки промежутка : 500 мс.





Релиз от: Deadmauvlad



   Похожие торренты   Торрент   Размер 
В этой теме нет новых непрочитанных сообщений. Госдеп с Ксенией Собчак 2. Итоги выборов [эфир от 06.03] (2012) WEBRip-AVC

0 | 1

273.18 МБ

В этой теме нет новых непрочитанных сообщений. Госдеп - 2 с Ксенией Собчак. РПЦ. Священная война [эфир от 09.04] (2012) WEBRip

0 | 1

269.58 МБ

В этой теме нет новых непрочитанных сообщений. Госдеп - 2 с Ксенией Собчак. Наказ оппозиции [эфир от 31.05] (2012) WEBRip

0 | 36

700.71 МБ

В этой теме нет новых непрочитанных сообщений. Госдеп с Ксенией Собчак. Куда ведет нас Путин? [эфир от 02.07] (2012) SATRip

0 | 6

706.35 МБ

В этой теме нет новых непрочитанных сообщений. Госдеп - 2 с Ксенией Собчак. Президентская амнистия. Что дальше? [эфир от 02.05] (2012) WEBRip

0 | 1

582.25 МБ

В этой теме нет новых непрочитанных сообщений. Госдеп - 2 с Ксенией Собчак. Радикализация протестного движения?! [эфир от 11.05] (2012) WEBRip

0 | 1

642.68 МБ

В этой теме нет новых непрочитанных сообщений. Госдеп - 2 с Ксенией Собчак. Реальная политика или обыкновенная лояльность? [эфир от 24.05] (2012) WEBRip

47 | 1

659.44 МБ




Вы не можете начинать темы
Вы не можете отвечать на сообщения
Вы не можете редактировать свои сообщения
Вы не можете удалять свои сообщения
Вы не можете добавлять вложения

Перейти:  
Для Мосгорсуда, Роскомнадзора и рекламодателей: mosgorsud-torrent[собачка]yandex.ru
 Вход
ppkBB3cker v.2 © 2008-2014 @ PPK
[ Time : 0.564s | 15 Queries | GZIP : On ]

Торрент трекер RUTOR.IN, Не можете зайти на rutor.org? Какой новый адрес рутор? Какое зеркало рутор? Не работает rutor.org и зеркала? Тогда наш торрент специально для вас. Rutor.in неофициальное зеркало rutor. В случае если у Вас заблокирован rutor или вдруг Вы не можете на него зайти, то Вы без труда сможете скачать бесплатно и без рекламы последние новинки кино, игр, сериалов и прочего у нас, на Rutor.in. Не нужно использовать прокси, чтобы зайти на рутор, достаточно воспользоваться нашим ресурсом. Все новые фильмы, игры, сериалы, книги и музыка за 2013 и 2014 годы через торрент бесплатно. Скачивайте фильмы в хорошем качестве, игры для пк, xbox, playstation без регистрации. У нас вы найдете новые Зарубежные сериалы и Русские сериалы 2013, 2014, 2015 годов. Оставайтесь с нами, качайте любимые фильмы, игры, сериалы, книги и музыку.