img image001 image001 image001 image001 image001 image001 image001 image001 image001 image001 image001 image001 image001 image001 image001

Planets Sun Sun Sun
Статистика раздачи
Автор: PriZraK | Размер: 53.8 ГБ | Добавлен: 15 фев 2014
Раздают: 0    Качают: 2
Скачать торрент
Скачать торрент
Описание торрента

СообщениеДобавлено: 15 фев 2014 

Живой звук. Первый сезон. Выпуск 01-12

Жанр: Pop, Тв-шоу
Продолжительность: 01:30:00 / выпуск
Год выпуска: 2013

Описание: Каждую пятницу в студии программы "Живой звук" на телеканале "Россия" собираются звезды – пообщаться и, конечно, попеть. Звезды устраивают необычный концерт – поют в караоке. Композиции выбирает музыкальный автомат – никто не знает, какая песня ему достанется. Поп или рок, рэп или романс, опера или мюзикл, современный хит или советский шлягер. Готовы ли звезды к эксперименту? Поют все, кого мы знаем и любим: и те, кто стал популярен совсем недавно, и те, кто уже стал живой легендой, и даже те, кого еще не видели по телевизору, но зато слышали по радио или "лайкали" на YouTube. Вместе с профессионалами будут петь и любители – кумиры клубного караоке. Кто знает, может, после выступления в шоу "Живой звук" они станут кумирами миллионов! Оценивает все выступления беспристрастная караоке-машина по 100-балльной шкале. Главная интрига шоу – неожиданное появление гостя, чье имя не раскрывается до последнего момента. Он – единственный, кто будет петь в своем любимом жанре. Результат его выступления становится планкой, кто ее не перепрыгнет – уступит место новой звезде. Состав участников "Живого звука" меняется, но неизменно остается звездным! "Живой звук" – это отличный пятничный вечер!

Ведущий: Юрий Стоянов

Треклисты:

01. Денис Клявер - "Как на войне"
02. Юлия Лебедева - "Весь мир на ладони моей"
03. Натали - "О, боже, какой мужчина"
04. Ирина Нельсон - "На берегу неба"
05. Светлана Сурганова - "Электричка"
06. Оскар Кучера - "Серенада Трубадура"
07. Наталия Гулькина - "Цветут цветы"
08. Анастасия Макеева - "Can't take my eyes off you"
09. Александра Савельева - "Голая"
10. Сосо Павлиашвили - "Самый лучший день"
11. Ева Польна - "Весь мир на ладони моей"
12. Группа "Бандэрос" - "Караоке"

Доп. информация: Релиз -


Рип чистый. Без посторонних надписей. Выкладывается как есть.

[Качество: HDTV 1080i
Контейнер: TS
Видео кодек: AVC
Аудио кодек: AC3
Видео: 1920x1080 (16:9) 25.000 fps 7 853 Kbps, 0.151 bit/pixel
Аудио: MPEG Audio 48000Hz stereo 192 Кбит/сек




GeneralID : 1 (0x1)Complete name : D:ВыкладкаЖивой звук. Первый сезон (2013, Pop, Тв-шоу, HDTV 1080i) (MYDIMKA)Живой звук. Выпуск 01 (25.10.2013) (2013, Pop, Тв-шоу, HDTV 1080i) (MYDIMKA).tsFormat : MPEG-TSFile size : 4.96 GiBDuration : 1h 24mnOverall bit rate mode : VariableOverall bit rate : 8 439 Kbps

VideoID : 2911 (0xB5F)Menu ID : 1 (0x1)Format : AVCFormat/Info : Advanced Video CodecFormat profile : High@L4.0Format settings, CABAC : YesFormat settings, ReFrames : 3 framesCodec ID : 27Duration : 1h 24mnBit rate : 7 828 KbpsWidth : 1 920 pixelsHeight : 1 080 pixelsDisplay aspect ratio : 16:9Frame rate : 25.000 fpsColor space : YUVChroma subsampling : 4:2:0Bit depth : 8 bitsScan type : MBAFFBits/(Pixel*Frame) : 0.151Stream size : 4.60 GiB (93%)

AudioID : 2912 (0xB60)Menu ID : 1 (0x1)Format : MPEG AudioFormat version : Version 1Format profile : Layer 2Mode : Joint stereoMode extension : Intensity Stereo + MS StereoCodec ID : 3Duration : 1h 24mnBit rate mode : ConstantBit rate : 192 KbpsChannel count : 2 channelsSampling rate : 48.0 KHzCompression mode : LossyStream size : 116 MiB (2%)Language : Russian



   Похожие торренты   Торрент   Размер 
В этой теме нет новых непрочитанных сообщений. Живой звук. Первый сезон [Выпуски 01-12] (2013) HDTVRip

2 | 3

14.79 ГБ

В этой теме нет новых непрочитанных сообщений. Голос. Второй сезон [Выпуски 01-09] (2013) HDTV 1080i

1 | 2

65.17 ГБ

В этой теме нет новых непрочитанных сообщений. Голос. Второй сезон [Выпуски 01-17 из 17] (2013) HDTV 1080i

1 | 2

140.62 ГБ

В этой теме нет новых непрочитанных сообщений. Голос. Второй сезон. За кадром [Выпуски 01-14] (2013) HDTV 1080i

0 | 2

37.51 ГБ

В этой теме нет новых непрочитанных сообщений. Повтори! Первый сезон [Выпуск 01-08] (2013) HDTV 1080i

0 | 2

67.73 ГБ

В этой теме нет новых непрочитанных сообщений. Танцуй. Первый сезон. Первый канал. [Выпуски 01-05] (2015) SATRip

46 | 25

9.04 ГБ

В этой теме нет новых непрочитанных сообщений. КВН 2013. Премьер-лига. Все игры сезона [01-03 выпуски] (2013) HDTV 1080i

0 | 2

20.99 ГБ




Вы не можете начинать темы
Вы не можете отвечать на сообщения
Вы не можете редактировать свои сообщения
Вы не можете удалять свои сообщения
Вы не можете добавлять вложения

Перейти:  
Для Мосгорсуда, Роскомнадзора и рекламодателей: mosgorsud-torrent[собачка]yandex.ru
 Вход
ppkBB3cker v.2 © 2008-2014 @ PPK
[ Time : 0.069s | 15 Queries | GZIP : Off ]

Торрент трекер RUTOR.IN, Не можете зайти на rutor.org? Какой новый адрес рутор? Какое зеркало рутор? Не работает rutor.org и зеркала? Тогда наш торрент специально для вас. Rutor.in неофициальное зеркало rutor. В случае если у Вас заблокирован rutor или вдруг Вы не можете на него зайти, то Вы без труда сможете скачать бесплатно и без рекламы последние новинки кино, игр, сериалов и прочего у нас, на Rutor.in. Не нужно использовать прокси, чтобы зайти на рутор, достаточно воспользоваться нашим ресурсом. Все новые фильмы, игры, сериалы, книги и музыка за 2013 и 2014 годы через торрент бесплатно. Скачивайте фильмы в хорошем качестве, игры для пк, xbox, playstation без регистрации. У нас вы найдете новые Зарубежные сериалы и Русские сериалы 2013, 2014, 2015 годов. Оставайтесь с нами, качайте любимые фильмы, игры, сериалы, книги и музыку.
cron