img image001 image001 image001 image001 image001 image001 image001 image001 image001 image001 image001 image001 image001 image001 image001

Planets Sun Sun Sun
Статистика раздачи
Автор: PriZraK | Размер: 14.79 ГБ | Добавлен: 15 фев 2014
Раздают: 2    Качают: 3
Скачать торрент
Скачать торрент
Описание торрента

СообщениеДобавлено: 15 фев 2014 

Живой звук. Первый сезон. Выпуск 01-12

Жанр: Pop, Тв-шоу
Продолжительность: 01:30:00 / выпуск
Год выпуска: 2013

Описание: Каждую пятницу в студии программы "Живой звук" на телеканале "Россия" собираются звезды – пообщаться и, конечно, попеть. Звезды устраивают необычный концерт – поют в караоке. Композиции выбирает музыкальный автомат – никто не знает, какая песня ему достанется. Поп или рок, рэп или романс, опера или мюзикл, современный хит или советский шлягер. Готовы ли звезды к эксперименту? Поют все, кого мы знаем и любим: и те, кто стал популярен совсем недавно, и те, кто уже стал живой легендой, и даже те, кого еще не видели по телевизору, но зато слышали по радио или "лайкали" на YouTube. Вместе с профессионалами будут петь и любители – кумиры клубного караоке. Кто знает, может, после выступления в шоу "Живой звук" они станут кумирами миллионов! Оценивает все выступления беспристрастная караоке-машина по 100-балльной шкале. Главная интрига шоу – неожиданное появление гостя, чье имя не раскрывается до последнего момента. Он – единственный, кто будет петь в своем любимом жанре. Результат его выступления становится планкой, кто ее не перепрыгнет – уступит место новой звезде. Состав участников "Живого звука" меняется, но неизменно остается звездным! "Живой звук" – это отличный пятничный вечер!

Ведущий: Юрий Стоянов

Треклисты:

01. Денис Клявер - "Как на войне"
02. Юлия Лебедева - "Весь мир на ладони моей"
03. Натали - "О, боже, какой мужчина"
04. Ирина Нельсон - "На берегу неба"
05. Светлана Сурганова - "Электричка"
06. Оскар Кучера - "Серенада Трубадура"
07. Наталия Гулькина - "Цветут цветы"
08. Анастасия Макеева - "Can't take my eyes off you"
09. Александра Савельева - "Голая"
10. Сосо Павлиашвили - "Самый лучший день"
11. Ева Польна - "Весь мир на ладони моей"
12. Группа "Бандэрос" - "Караоке"

Доп. информация: Релиз -


Рип чистый. Без посторонних надписей. Выкладывается как есть.

Качество: HDTVRip
Формат: AVI
Видео кодек: XVID
Аудио кодек: MP2
Видео: 720x400 (16:9) 25.000 fps 2 100 Kbps, 0.291 bit/pixel
Аудио: MPEG Audio, 48000Hz, 2 channels, 192 Кбит/сек




GeneralComplete name : D:ВыкладкаЖивой звук. Первый сезон (2013, Pop, Тв-шоу, HDTVRip) (MYDIMKA)Живой звук. Выпуск 01 (25.10.2013) (2013, Pop, Тв-шоу, HDTVRip) (MYDIMKA).aviFormat : AVIFormat/Info : Audio Video InterleaveFile size : 1.35 GiBDuration : 1h 24mnOverall bit rate : 2 300 KbpsWriting application : VirtualDubMod 1.5.10.3 | www.virtualdub-fr.org || (build 2550/release)Writing library : VirtualDubMod build 2550/release

VideoID : 0Format : MPEG-4 VisualFormat profile : Advanced Simple@L5Format settings, BVOP : 2Format settings, QPel : NoFormat settings, GMC : No warppointsFormat settings, Matrix : Default (H.263)Codec ID : XVIDCodec ID/Hint : XviDDuration : 1h 24mnBit rate : 2 099 KbpsWidth : 720 pixelsHeight : 400 pixelsDisplay aspect ratio : 16:9Frame rate : 25.000 fpsColor space : YUVChroma subsampling : 4:2:0Bit depth : 8 bitsScan type : ProgressiveCompression mode : LossyBits/(Pixel*Frame) : 0.291Stream size : 1.23 GiB (91%)Writing library : XviD 1.2.1 (UTC 2008-12-04)

AudioID : 1Format : MPEG AudioFormat version : Version 1Format profile : Layer 3Codec ID : 55Codec ID/Hint : MP3Duration : 1h 24mnBit rate mode : ConstantBit rate : 192 KbpsChannel count : 2 channelsSampling rate : 48.0 KHzCompression mode : LossyStream size : 116 MiB (8%)Alignment : Aligned on interleavesInterleave, duration : 40 ms (1.00 video frame)Interleave, preload duration : 504 msWriting library : LAME3.99rEncoding settings : -m s -V 4 -q 2 -lowpass 18.6 -b 192



   Похожие торренты   Торрент   Размер 
В этой теме нет новых непрочитанных сообщений. Живой звук. Первый сезон [Выпуски 01-12] (2013) HDTV 1080i

0 | 2

53.8 ГБ

В этой теме нет новых непрочитанных сообщений. Танцуй. Первый сезон. Первый канал. [Выпуски 01-05] (2015) SATRip

46 | 25

9.04 ГБ

В этой теме нет новых непрочитанных сообщений. Голос. Второй сезон [Выпуски 01-17 из 17] (2013) HDTVRip

5 | 8

30.33 ГБ

В этой теме нет новых непрочитанных сообщений. Голос. Второй сезон. За кадром [Выпуски 01-14] (2013) HDTVRip

1 | 4

8.86 ГБ

В этой теме нет новых непрочитанных сообщений. Голос. Второй сезон [Выпуски 01-17] (2013) HDTVRip 720p

3 | 3

43.02 ГБ

В этой теме нет новых непрочитанных сообщений. Повтори! Первый сезон [Выпуск 01-08] (2013) HDTVRip

0 | 3

14.33 ГБ

В этой теме нет новых непрочитанных сообщений. Повтори! Первый сезон [Выпуск 01-06] (2013) HDTVRip 720p

0 | 1

16.08 ГБ




Вы не можете начинать темы
Вы не можете отвечать на сообщения
Вы не можете редактировать свои сообщения
Вы не можете удалять свои сообщения
Вы не можете добавлять вложения

Перейти:  
Для Мосгорсуда, Роскомнадзора и рекламодателей: mosgorsud-torrent[собачка]yandex.ru
 Вход
ppkBB3cker v.2 © 2008-2014 @ PPK
[ Time : 0.051s | 15 Queries | GZIP : Off ]

cron