img image001 image001 image001 image001 image001 image001 image001 image001 image001 image001 image001 image001 image001 image001 image001

Planets Sun Sun Sun
Статистика раздачи
Автор: PriZraK | Размер: 664.31 МБ | Добавлен: 15 фев 2014
Раздают: 0    Качают: 9
Скачать торрент
Скачать торрент
Описание торрента

СообщениеДобавлено: 15 фев 2014 

Невообразимое зло / Starz Inside: Unforgettable Evil


Название: Невообразимое злоОригинальное название: Starz Inside: Unforgettable Evil
Год выхода: 2009
Жанр: Документальный, кино, ужасы



Режиссер: Себастьян Бауэр

В ролях: Тобин Белл, Дэвид Кэрредин, Джеймс Кромуэлл, Уильям Фихтнер, Брюс Гринвуд, Дэрил Ханна, Джеймс Ньютон Ховард, Стэн Ли, Кристанна Локен, Джо Мантенья, Малкольм МакДауэлл, Роберт Патрик, Эрик Робертс, Хью Росс, Элай Рот



О фильме:
Злодей обеспечивает конфликт, необходимый для захватывающей истории. Кино помогло нам изменить представление об известных плохих парнях. Неважно, машина это, монстр, мужчина или женщина. У всех из них есть общая черта. Все они - невообразимое зло...







Страна: США, Giant Interactive Entertainment, Starz Entertainment
Продолжительность: 00:57:52
Перевод: Профессиональный многоголосый (Амедиа)



Качество: HDTVRip
Видео: XviD, 1435 Кбит/с, 704x400
Звук: MP3, 2 ch, 160 Кбит/с


Общее
Полное имя : E:Unforgettable.Evil.2009.HDTVRip.avi
Формат : AVI
Формат/Информация : Audio Video Interleave
Размер файла : 664 Мбайт
Продолжительность : 57 м.
Общий поток : 1605 Кбит/сек
Программа кодирования : VirtualDubMod 1.5.10.3 | www.virtualdub-fr.org || (build 2550/release)
Библиотека кодирования : VirtualDubMod build 2550/release

Видео
Идентификатор : 0
Формат : MPEG-4 Visual
Профиль формата : Advanced Simple@L5
Параметр BVOP формата : 2
Параметр QPel формата : Нет
Параметр GMC формата : Без точки перехода
Параметр матрицы формата : Default (MPEG)
Идентификатор кодека : XVID
Идентификатор кодека/Подсказка : XviD
Продолжительность : 57 м.
Битрейт : 1435 Кбит/сек
Ширина : 704 пикселя
Высота : 400 пикселей
Соотношение сторон : 16:9
Частота кадров : 25,000 кадров/сек
Цветовое пространство : YUV
Субдискретизация насыщенности : 4:2:0
Битовая глубина : 8 бит
Тип развёртки : Прогрессивная
Метод сжатия : С потерями
Бит/(Пиксели*Кадры) : 0.204
Размер потока : 594 Мбайт (89%)
Библиотека кодирования : XviD 65

Аудио
Идентификатор : 1
Формат : MPEG Audio
Версия формата : Version 1
Профиль формата : Layer 3
Идентификатор кодека : 55
Идентификатор кодека/Подсказка : MP3
Продолжительность : 57 м.
Вид битрейта : Постоянный
Битрейт : 160 Кбит/сек
Каналы : 2 канала
Частота : 48,0 КГц
Метод сжатия : С потерями
Размер потока : 66,2 Мбайт (10%)
Выравнивание : Соединение по промежуткам
Продолжительность промежутка : 40 мс. (1,00 видеокадр)
Время предзагрузки промежутка : 504 мс.
Библиотека кодирования : LAME3.99r
Настройки программы : -m s -V 4 -q 2 -lowpass 17.5 -b 160



   Похожие торренты   Торрент   Размер 
В этой теме нет новых непрочитанных сообщений. Невообразимое зло / Starz Inside: Unforgettable Evil (2009) HDTV 1080i | P

1 | 2

1.97 ГБ

В этой теме нет новых непрочитанных сообщений. Секс в кино / Starz Inside: Sex and the Cinema (2009) HDTVRip-AVC | P

386 | 35

693.73 МБ

В этой теме нет новых непрочитанных сообщений. Секс в кино / Starz Inside: Sex and the Cinema (2009) HDTVRip | P

269 | 18

553.72 МБ

В этой теме нет новых непрочитанных сообщений. Невообразимое зло / Unforgettably evil (2009) HDTV 1080i от Generalfilm

41 | 5

3.42 ГБ

В этой теме нет новых непрочитанных сообщений. Леди или джентельмены / Starz Inside: Ladies or Gentlemen (2008) HDTVRip | P

3 | 2

746.54 МБ

В этой теме нет новых непрочитанных сообщений. Голливуд играет в игры / Starz Inside: Hollywood Goes Gaming (2007) HDTVRip | P

1 | 2

956.1 МБ

В этой теме нет новых непрочитанных сообщений. Грим в Кино: Искусство Грима / Starz Inside: Fantastic Flesh (2008) HDTVRip 720p

35 | 5

1.71 ГБ




Вы не можете начинать темы
Вы не можете отвечать на сообщения
Вы не можете редактировать свои сообщения
Вы не можете удалять свои сообщения
Вы не можете добавлять вложения

Перейти:  
Для Мосгорсуда, Роскомнадзора и рекламодателей: mosgorsud-torrent[собачка]yandex.ru
 Вход
ppkBB3cker v.2 © 2008-2014 @ PPK
[ Time : 0.039s | 15 Queries | GZIP : Off ]

Торрент трекер RUTOR.IN, Не можете зайти на rutor.org? Какой новый адрес рутор? Какое зеркало рутор? Не работает rutor.org и зеркала? Тогда наш торрент специально для вас. Rutor.in неофициальное зеркало rutor. В случае если у Вас заблокирован rutor или вдруг Вы не можете на него зайти, то Вы без труда сможете скачать бесплатно и без рекламы последние новинки кино, игр, сериалов и прочего у нас, на Rutor.in. Не нужно использовать прокси, чтобы зайти на рутор, достаточно воспользоваться нашим ресурсом. Все новые фильмы, игры, сериалы, книги и музыка за 2013 и 2014 годы через торрент бесплатно. Скачивайте фильмы в хорошем качестве, игры для пк, xbox, playstation без регистрации. У нас вы найдете новые Зарубежные сериалы и Русские сериалы 2013, 2014, 2015 годов. Оставайтесь с нами, качайте любимые фильмы, игры, сериалы, книги и музыку.