img image001 image001 image001 image001 image001 image001 image001 image001 image001 image001 image001 image001 image001 image001 image001

Planets Sun Sun Sun
Статистика раздачи
Автор: PriZraK | Размер: 956.1 МБ | Добавлен: 15 фев 2014
Раздают: 1    Качают: 2
Скачать торрент
Скачать торрент
Описание торрента

СообщениеДобавлено: 15 фев 2014 

Голливуд играет в игры / Starz Inside: Hollywood Goes Gaming


Название: Голливуд играет в игрыОригинальное название: Starz Inside: Hollywood Goes Gaming
Год выхода: 2007
Жанр: Документальный, кино, видеоигры



Режиссер: Грегг Бэкер

В ролях: Джессика Чобот, Ким Морган, Бретт Рейлэндер



О фильме:
Компьютерные игры - это бестселлеры нового поколения. Именно поэтому их переносят на большой экран. Некоторые игры сейчас приносят больше прибыли, чем фильмы. В наши дни технологии настолько продвинулись, что просто дух захватывает. Ты все ближе и ближе к чему-то, чего даже и не видел. Киноискусство неизбежно менялось и по иронии судьбы неизбежно стало напоминать видеоигры. Теперь вслед за каждым блокбастером создается игра. И никак иначе. Они сливаются. Невероятное слияние...







Страна: США, Foglight Entertainment
Продолжительность: 00:58:53
Перевод: Профессиональный многоголосый (Анимедиа)



Качество: HDTVRip
Видео: XviD, 2100 Кбит/с, 704x544
Звук: MP3, 2 ch, 160 Кбит/с


Общее
Полное имя : E:Hollywood.Goes.Gaming.2007.P.HDTVRip.avi
Формат : AVI
Формат/Информация : Audio Video Interleave
Размер файла : 956 Мбайт
Продолжительность : 58 м.
Общий поток : 2270 Кбит/сек
Программа кодирования : VirtualDubMod 1.5.10.3 | www.virtualdub-fr.org || (build 2550/release)
Библиотека кодирования : VirtualDubMod build 2550/release

Видео
Идентификатор : 0
Формат : MPEG-4 Visual
Профиль формата : Advanced Simple@L5
Параметр BVOP формата : 2
Параметр QPel формата : Нет
Параметр GMC формата : Без точки перехода
Параметр матрицы формата : Default (MPEG)
Идентификатор кодека : XVID
Идентификатор кодека/Подсказка : XviD
Продолжительность : 58 м.
Битрейт : 2100 Кбит/сек
Ширина : 704 пикселя
Высота : 544 пикселя
Соотношение сторон : 1,294
Частота кадров : 25,000 кадров/сек
Цветовое пространство : YUV
Субдискретизация насыщенности : 4:2:0
Битовая глубина : 8 бит
Тип развёртки : Прогрессивная
Метод сжатия : С потерями
Бит/(Пиксели*Кадры) : 0.219
Размер потока : 885 Мбайт (93%)
Библиотека кодирования : XviD 65

Аудио
Идентификатор : 1
Формат : MPEG Audio
Версия формата : Version 1
Профиль формата : Layer 3
Идентификатор кодека : 55
Идентификатор кодека/Подсказка : MP3
Продолжительность : 58 м.
Вид битрейта : Постоянный
Битрейт : 160 Кбит/сек
Каналы : 2 канала
Частота : 48,0 КГц
Метод сжатия : С потерями
Размер потока : 67,4 Мбайт (7%)
Выравнивание : Соединение по промежуткам
Продолжительность промежутка : 40 мс. (1,00 видеокадр)
Время предзагрузки промежутка : 504 мс.
Библиотека кодирования : LAME3.99r
Настройки программы : -m s -V 4 -q 5 -lowpass 17.5 -b 160



   Похожие торренты   Торрент   Размер 
В этой теме нет новых непрочитанных сообщений. Доктор Голливуд / Doc Hollywood (1991) HDTVRip

19 | 15

2.18 ГБ

В этой теме нет новых непрочитанных сообщений. Невообразимое зло / Starz Inside: Unforgettable Evil (2009) HDTVRip | P

0 | 9

664.31 МБ

В этой теме нет новых непрочитанных сообщений. Секс в кино / Starz Inside: Sex and the Cinema (2009) HDTVRip-AVC | P

377 | 35

693.73 МБ

В этой теме нет новых непрочитанных сообщений. Секс в кино / Starz Inside: Sex and the Cinema (2009) HDTVRip | P

256 | 20

553.72 МБ

В этой теме нет новых непрочитанных сообщений. Леди или джентельмены / Starz Inside: Ladies or Gentlemen (2008) HDTVRip | P

3 | 2

746.54 МБ

В этой теме нет новых непрочитанных сообщений. Хочу в Голливуд / Di Di Hollywood (2010) HDTVRip 1080p от RG MixTorrent | P

7 | 24

3.63 ГБ

В этой теме нет новых непрочитанных сообщений. Грим в Кино: Искусство Грима / Starz Inside: Fantastic Flesh (2008) HDTVRip 720p

35 | 5

1.71 ГБ




Вы не можете начинать темы
Вы не можете отвечать на сообщения
Вы не можете редактировать свои сообщения
Вы не можете удалять свои сообщения
Вы не можете добавлять вложения

Перейти:  
Для Мосгорсуда, Роскомнадзора и рекламодателей: mosgorsud-torrent[собачка]yandex.ru
 Вход
ppkBB3cker v.2 © 2008-2014 @ PPK
[ Time : 0.041s | 16 Queries | GZIP : Off ]

Торрент трекер RUTOR.IN, Не можете зайти на rutor.org? Какой новый адрес рутор? Какое зеркало рутор? Не работает rutor.org и зеркала? Тогда наш торрент специально для вас. Rutor.in неофициальное зеркало rutor. В случае если у Вас заблокирован rutor или вдруг Вы не можете на него зайти, то Вы без труда сможете скачать бесплатно и без рекламы последние новинки кино, игр, сериалов и прочего у нас, на Rutor.in. Не нужно использовать прокси, чтобы зайти на рутор, достаточно воспользоваться нашим ресурсом. Все новые фильмы, игры, сериалы, книги и музыка за 2013 и 2014 годы через торрент бесплатно. Скачивайте фильмы в хорошем качестве, игры для пк, xbox, playstation без регистрации. У нас вы найдете новые Зарубежные сериалы и Русские сериалы 2013, 2014, 2015 годов. Оставайтесь с нами, качайте любимые фильмы, игры, сериалы, книги и музыку.
cron