img image001 image001 image001 image001 image001 image001 image001 image001 image001 image001 image001 image001 image001 image001 image001

Planets Sun Sun Sun
Статистика раздачи
Автор: PriZraK | Размер: 746.54 МБ | Добавлен: 15 фев 2014
Раздают: 3    Качают: 2
Скачать торрент
Скачать торрент
Описание торрента

СообщениеДобавлено: 15 фев 2014 

Леди или джентельмены / Starz Inside: Ladies or Gentlemen


Название: Леди или джентельменыОригинальное название: Starz Inside: Ladies or Gentlemen
Год выхода: 2008
Жанр: Документальный, кино



Режиссер: Кевин Барнс

В ролях: Тим Карри, Энди Фикмен, Джон Лэндис, Джек Леммон, Майкл Мусто, РуПол, Джон Уотерс, Дэймон Уайанс, Робин Уильямс



О фильме:
Что общего у Джона Траволты, Дастина Хоффмана, Эдди Мёрфи, Робина Уильямса и Джонни Деппа? Вы не поверите, но это утягивающее бельё, тушь и туфли на шпильках. Но зачем же многие звезды надевают платья, чулки в сетку и боа из перьев? И почему зрителей так влекут мужчины в юбках или женщины в брюках? Starz Inside представляет взгляд на самых известных трансвеститов и транссексуалов в кино...







Страна: США, Prometheus Entertainment
Продолжительность: 00:50:26
Перевод: Профессиональный многоголосый (Amedia)



Качество: HDTVRip
Видео: XviD, 1900 Кбит/с, 704x400
Звук: MP3, 2 ch, 160 Кбит/с


Общее
Полное имя : E:Ladies.or.Gentlemen.2008.P.HDTVRip-Bi6f00t.avi
Формат : AVI
Формат/Информация : Audio Video Interleave
Размер файла : 747 Мбайт
Продолжительность : 50 м.
Общий поток : 2070 Кбит/сек
Программа кодирования : VirtualDubMod 1.5.10.3 | www.virtualdub-fr.org || (build 2550/release)
Библиотека кодирования : VirtualDubMod build 2550/release

Видео
Идентификатор : 0
Формат : MPEG-4 Visual
Профиль формата : Advanced Simple@L5
Параметр BVOP формата : 2
Параметр QPel формата : Нет
Параметр GMC формата : Без точки перехода
Параметр матрицы формата : Default (MPEG)
Идентификатор кодека : XVID
Идентификатор кодека/Подсказка : XviD
Продолжительность : 50 м.
Битрейт : 1900 Кбит/сек
Ширина : 704 пикселя
Высота : 400 пикселей
Соотношение сторон : 16:9
Частота кадров : 25,000 кадров/сек
Цветовое пространство : YUV
Субдискретизация насыщенности : 4:2:0
Битовая глубина : 8 бит
Тип развёртки : Прогрессивная
Метод сжатия : С потерями
Бит/(Пиксели*Кадры) : 0.270
Размер потока : 685 Мбайт (92%)
Библиотека кодирования : XviD 65

Аудио
Идентификатор : 1
Формат : MPEG Audio
Версия формата : Version 1
Профиль формата : Layer 3
Идентификатор кодека : 55
Идентификатор кодека/Подсказка : MP3
Продолжительность : 50 м.
Вид битрейта : Постоянный
Битрейт : 160 Кбит/сек
Каналы : 2 канала
Частота : 48,0 КГц
Метод сжатия : С потерями
Размер потока : 57,7 Мбайт (8%)
Выравнивание : Соединение по промежуткам
Продолжительность промежутка : 40 мс. (1,00 видеокадр)
Время предзагрузки промежутка : 504 мс.
Библиотека кодирования : LAME3.99r
Настройки программы : -m s -V 4 -q 5 -lowpass 17.5 -b 160



   Похожие торренты   Торрент   Размер 
В этой теме нет новых непрочитанных сообщений. Леди или джентельмены / Starz Inside: Ladies or Gentlemen (2008) HDTV 1080i | P

0 | 2

1.69 ГБ

В этой теме нет новых непрочитанных сообщений. Леди или джентльмены / Ladies or Gentlemen (2008) DVB-AVC

7 | 1

506.18 МБ

В этой теме нет новых непрочитанных сообщений. Леди или джентльмены / Ladies or Gentlemen (2008) HDTV 1080i от Generalfilm | P

14 | 2

3.08 ГБ

В этой теме нет новых непрочитанных сообщений. Грим в Кино: Искусство Грима / Starz Inside: Fantastic Flesh (2008) HDTVRip 720p

35 | 5

1.71 ГБ

В этой теме нет новых непрочитанных сообщений. Секс в кино / Starz Inside: Sex and the Cinema (2009) HDTVRip-AVC | P

691 | 71

693.73 МБ

В этой теме нет новых непрочитанных сообщений. Невообразимое зло / Starz Inside: Unforgettable Evil (2009) HDTVRip | P

0 | 9

664.31 МБ

В этой теме нет новых непрочитанных сообщений. Секс в кино / Starz Inside: Sex and the Cinema (2009) HDTVRip | P

477 | 26

553.72 МБ




Вы не можете начинать темы
Вы не можете отвечать на сообщения
Вы не можете редактировать свои сообщения
Вы не можете удалять свои сообщения
Вы не можете добавлять вложения

Перейти:  
Для Мосгорсуда, Роскомнадзора и рекламодателей: mosgorsud-torrent[собачка]yandex.ru
 Вход
ppkBB3cker v.2 © 2008-2014 @ PPK
[ Time : 0.046s | 15 Queries | GZIP : On ]

Торрент трекер RUTOR.IN, Не можете зайти на rutor.org? Какой новый адрес рутор? Какое зеркало рутор? Не работает rutor.org и зеркала? Тогда наш торрент специально для вас. Rutor.in неофициальное зеркало rutor. В случае если у Вас заблокирован rutor или вдруг Вы не можете на него зайти, то Вы без труда сможете скачать бесплатно и без рекламы последние новинки кино, игр, сериалов и прочего у нас, на Rutor.in. Не нужно использовать прокси, чтобы зайти на рутор, достаточно воспользоваться нашим ресурсом. Все новые фильмы, игры, сериалы, книги и музыка за 2013 и 2014 годы через торрент бесплатно. Скачивайте фильмы в хорошем качестве, игры для пк, xbox, playstation без регистрации. У нас вы найдете новые Зарубежные сериалы и Русские сериалы 2013, 2014, 2015 годов. Оставайтесь с нами, качайте любимые фильмы, игры, сериалы, книги и музыку.