img image001 image001 image001 image001 image001 image001 image001 image001 image001 image001 image001 image001 image001 image001 image001

Planets Sun Sun Sun
Статистика раздачи
Автор: PriZraK | Размер: 22.12 ГБ | Добавлен: 15 фев 2014
Раздают: 0    Качают: 3
Скачать торрент
Скачать торрент
Описание торрента

СообщениеДобавлено: 15 фев 2014 

Ледниковый период. Кубок профессионалов. Выпуск 01 - 02 (Из ??)

Год выпуска: 2014
Страна: Россия
Жанр: Фигурное катание, Тв-шоу
Продолжительность: 02:00:00 / выпуск
Перевод: Не требуется
Русские субтитры: нет

Описание: Олимпийские чемпионы и чемпионы мира и Европы по фигурному катанию – парники, одиночники и танцоры на льду встретятся лицом к лицу в рамках невероятного турнира на Первом канале – «Ледниковый период. Кубок профессионалов»! «Считанные недели остались до открытия Олимпийских игр в Сочи, – рассказывает продюсер и режиссер проекта Илья Авербух. – И мы с нетерпением ждем, как выступят наши фигуристы на этом самом главном соревновании в их жизни. В 2014 году на Олимпиаде впервые будут разыграны 5 комплектов наград. К индивидуальным соревнованиям среди мужчин и среди женщин, соревнованиям в парном катании и танцах на льду впервые добавляются командные соревнования – состязания лучших национальных команд. В преддверии Олимпиады мы решили разыграть свои медали в командном и индивидуальном первенстве». Соревнования в «Кубке профессионалов», как и на грядущей Олимпиаде, начнутся с командного соревнования. На льду лицом к лицу встретятся две команды – «Сборная России» и «Сборная мира», которые покажут короткие программы и произвольный танец. После этого все участники «Кубка профессионалов» выступят в индивидуальном зачете. В финальном выпуске проекта зрителей ждут показательные выступления.

«Сборная России»:
Алексей Ягудин – трехкратный чемпион Европы, четырехкратный чемпион мира, олимпийский чемпион.
Ирина Слуцкая – семикратная чемпионка Европы, двукратная чемпионка мира, серебряный призер Олимпийских игр.
Татьяна Навка и Роман Костомаров – трехкратные чемпионы Европы, двукратные чемпионы мира, олимпийские чемпионы в танцах на льду.
Оксана Домнина и Максим Шабалин – двукратные чемпионы Европы, чемпионы мира, бронзовые призеры Олимпийских игр в танцах на льду.
Мария Петрова и Алексей Тихонов – двукратные чемпионы Европы, чемпионы мира в парном катании.
Татьяна Тотьмянина и Максим Маринин – пятикратные чемпионы Европы, двукратные чемпионы мира, олимпийские чемпионы в парном катании.

«Сборная мира»:
Стефан Ламбьель – двукратный чемпион мира, серебряный призер Олимпийских игр, Швейцария.
Сара Майер – чемпионка Европы, Швейцария.
Фиона Залдуа и Дмитрий Суханов – призеры чемпионатов среди профессионалов в парном катании, Великобритания.
Елена Леонова и Андрей Хвалько – двукратные чемпионы мира среди профессионалов в парном катании, США.
Албена Денкова и Максим Ставиский – многократные призеры чемпионатов Европы, двукратные чемпионы мира по танцам на льду, Болгария.
Маргарита Дробязко и Повилас Ванагас – призеры чемпионатов Европы и мира по танцам на льду, Литва.

Оценивать мастерство участников проекта «Ледниковый период. Кубок профессионалов» будет жюри, состоящее из профессионалов фигурного катания: Татьяна Тарасова, Елена Чайковская, Виктор Петренко, Игорь Шпильбанд, Олег Васильев. Постановщики номеров: Илья Авербух и Александр Жулин.

Ведущие проекта: Анастасия Заворотнюк и Петр Чернышев.

Источник: собственный рип
Доп. информация: Релиз -


Рип чистый. Без посторонних надписей. Выкладывается как есть.

Качество: HDTV 1080i
Контейнер: TS
Видео кодек: AVC
Аудио кодек: MP2
Видео: 1920x1080 (16:9) 25.000 fps ~ 12.7 Mbps, 0.245 bit/pixel
Аудио: MPEG Audio 48000Hz stereo 192 Кбит/сек







General
ID : 1 (0x1)
Complete name : G:ВЫКЛАДКАЛедниковый период. Кубок профессионалов (2014, Фигурное катание, Тв-шоу, HDTV 1080i) (MYDIMKA)1 выпуск (12.01.2014).ts
Format : MPEG-TS
File size : 11.4 GiB
Duration : 2h 0mn
Overall bit rate mode : Variable
Overall bit rate : 13.5 Mbps

Video
ID : 305 (0x131)
Menu ID : 1 (0x1)
Format : AVC
Format/Info : Advanced Video Codec
Format profile : High@L4.0
Format settings, CABAC : Yes
Format settings, ReFrames : 3 frames
Format settings, GOP : M=4, N=28
Codec ID : 27
Duration : 2h 0mn
Bit rate : 12.7 Mbps
Width : 1 920 pixels
Height : 1 080 pixels
Display aspect ratio : 16:9
Frame rate : 25.000 fps
Standard : Component
Color space : YUV
Chroma subsampling : 4:2:0
Bit depth : 8 bits
Scan type : Interlaced
Scan order : Top Field First
Bits/(Pixel*Frame) : 0.245
Stream size : 10.7 GiB (94%)
Color primaries : BT.709
Transfer characteristics : BT.709
Matrix coefficients : BT.709

Audio
ID : 405 (0x195)
Menu ID : 1 (0x1)
Format : MPEG Audio
Format version : Version 1
Format profile : Layer 2
Codec ID : 3
Duration : 2h 0mn
Bit rate mode : Constant
Bit rate : 192 Kbps
Channel count : 2 channels
Sampling rate : 48.0 KHz
Compression mode : Lossy
Stream size : 165 MiB (1%)
Language : English



   Похожие торренты   Торрент   Размер 
В этой теме нет новых непрочитанных сообщений. Ледниковый период. Кубок профессионалов. [Выпуск 01-02] (2013) HDTVRip

0 | 3

3.96 ГБ

В этой теме нет новых непрочитанных сообщений. Ледниковый период. Кубок профессионалов. [Выпуск 01-02] (2013) HDTVRip 720р

0 | 3

6.33 ГБ

В этой теме нет новых непрочитанных сообщений. Ледниковый период. Кубок профессионалов [02] (2012) DVB

0 | 2

3.19 ГБ

В этой теме нет новых непрочитанных сообщений. Ледниковый период. Кубок профессионалов [01] (2012) DVB

0 | 2

2.95 ГБ

В этой теме нет новых непрочитанных сообщений. Ледниковый период. Кубок профессионалов [01-04] (2014) SATRip

228 | 28

6.09 ГБ

В этой теме нет новых непрочитанных сообщений. Ледниковый период 2014 [Выпуск 03] (2014) HDTV 1080i от MediaClub

20 | 15

14.15 ГБ

В этой теме нет новых непрочитанных сообщений. Ледниковый период 2014. [Выпуск 01] (2014) HDTV 1080i от MediaClub

15 | 10

13.94 ГБ




Вы не можете начинать темы
Вы не можете отвечать на сообщения
Вы не можете редактировать свои сообщения
Вы не можете удалять свои сообщения
Вы не можете добавлять вложения

Перейти:  
Для Мосгорсуда, Роскомнадзора и рекламодателей: mosgorsud-torrent[собачка]yandex.ru
 Вход
ppkBB3cker v.2 © 2008-2014 @ PPK
[ Time : 0.045s | 14 Queries | GZIP : On ]

Торрент трекер RUTOR.IN, Не можете зайти на rutor.org? Какой новый адрес рутор? Какое зеркало рутор? Не работает rutor.org и зеркала? Тогда наш торрент специально для вас. Rutor.in неофициальное зеркало rutor. В случае если у Вас заблокирован rutor или вдруг Вы не можете на него зайти, то Вы без труда сможете скачать бесплатно и без рекламы последние новинки кино, игр, сериалов и прочего у нас, на Rutor.in. Не нужно использовать прокси, чтобы зайти на рутор, достаточно воспользоваться нашим ресурсом. Все новые фильмы, игры, сериалы, книги и музыка за 2013 и 2014 годы через торрент бесплатно. Скачивайте фильмы в хорошем качестве, игры для пк, xbox, playstation без регистрации. У нас вы найдете новые Зарубежные сериалы и Русские сериалы 2013, 2014, 2015 годов. Оставайтесь с нами, качайте любимые фильмы, игры, сериалы, книги и музыку.