img image001 image001 image001 image001 image001 image001 image001 image001 image001 image001 image001 image001 image001 image001 image001

Planets Sun Sun Sun
Статистика раздачи
Автор: PriZraK | Размер: 67.73 ГБ | Добавлен: 15 фев 2014
Раздают: 0    Качают: 2
Скачать торрент
Скачать торрент
Описание торрента

СообщениеДобавлено: 15 фев 2014 

Повтори! Первый сезон. Выпуск 01-08 (Из ??)

Год выпуска: 2013
Страна: Россия
Жанр: Юмор, Тв-шоу
Продолжительность: 02:00:00
Перевод: Не требуется
Русские субтитры: нет

Описание: Шоу «Повтори!» – это шоу перевоплощений, где в пародийных конкурсах сойдутся 10 участников. На суд зрителей и профессионального жюри будут представлены пародии на известных актеров, телеведущих, политиков и звезд шоу-бизнеса. На звание мастера пародий претендуют: Нонна Гришаева, Александр Олешко, Елена Воробей, Михаил Грушевский, Валерий Пономаренко, Анна Большова, Камиль Ларин, Валерия Ланская, Даниил Щебланов, Марк Тишман. Бои пройдут в категориях: «Эстрада», «Музыкальная пародия», «Лицо с обложки», «Телефонный розыгрыш» и т.д. В каждом выпуске соревнования будут проходить в пяти жанрах. Каждый конкурсный день артисты, согласно жребию, разбиваются на пары: каждая пара представит номера в одном из пяти пародийных жанров. Таким образом, судьям не придется сравнивать эстрадный монолог Жванецкого с песней Тамары Гвердцители. Каждая дуэль оценивается членами жюри: каждое «да» от судей добавляет в копилку участника 1 балл. Эти оценки, складываясь от вечера к вечеру, и составят общий результат, с которым участник подойдет к финалу. Кроме того, в конце каждого конкурсного дня у судей есть возможность распределить «бонусный балл», которым он может дополнительно поощрить любого артиста. Сергей Бурунов, известный по блестящим пародиям в «Большой разнице», взял на себя роль наставника участников турнира, помогая им в работе над образами.
Доп. информация: Релиз -


Рип чистый. Без посторонних надписей. Выкладывается как есть.

[Качество: HDTV 1080i
Контейнер: TS
Видео кодек: AVC
Аудио кодек: AC3
Видео: 1920x1080 (16:9) 25.000 fps 7 853 Kbps, 0.151 bit/pixel
Аудио: MPEG Audio 48000Hz stereo 192 Кбит/сек





GeneralID : 1 (0x1)Complete name : D:ВыкладкаПовтори! Первый сезон (2013, Юмор, Тв-шоу, HDTV 1080i) (MYDIMKA)1 выпуск (03.11.2013).tsFormat : MPEG-TSFile size : 6.94 GiBDuration : 1h 57mnOverall bit rate mode : VariableOverall bit rate : 8 484 Kbps

VideoID : 2931 (0xB73)Menu ID : 1 (0x1)Format : AVCFormat/Info : Advanced Video CodecFormat profile : High@L4.0Format settings, CABAC : YesFormat settings, ReFrames : 3 framesCodec ID : 27Duration : 1h 57mnBit rate : 7 870 KbpsWidth : 1 920 pixelsHeight : 1 080 pixelsDisplay aspect ratio : 16:9Frame rate : 25.000 fpsColor space : YUVChroma subsampling : 4:2:0Bit depth : 8 bitsScan type : MBAFFBits/(Pixel*Frame) : 0.152Stream size : 6.44 GiB (93%)

AudioID : 2932 (0xB74)Menu ID : 1 (0x1)Format : MPEG AudioFormat version : Version 1Format profile : Layer 2Mode : Joint stereoMode extension : Intensity Stereo + MS StereoCodec ID : 3Duration : 1h 57mnBit rate mode : ConstantBit rate : 192 KbpsChannel count : 2 channelsSampling rate : 48.0 KHzCompression mode : LossyStream size : 161 MiB (2%)Language : Russian

TextID : 2934 (0xB76)-888Menu ID : 1 (0x1)Format : Teletext SubtitleLanguage : Russian

MenuID : 2930 (0xB72)Menu ID : 1 (0x1)Duration : 1h 57mnList : 2931 (0xB73) (AVC) / 2932 (0xB74) (MPEG Audio, Russian) / 2934 (0xB76) ()Language : / Russian



   Похожие торренты   Торрент   Размер 
В этой теме нет новых непрочитанных сообщений. Повтори! Первый сезон [Выпуск 01-08] (2013) HDTVRip

0 | 3

14.33 ГБ

В этой теме нет новых непрочитанных сообщений. Повтори! Первый сезон [Выпуск 01-06] (2013) HDTVRip 720p

0 | 1

16.08 ГБ

В этой теме нет новых непрочитанных сообщений. Живой звук. Первый сезон [Выпуски 01-12] (2013) HDTV 1080i

0 | 2

53.8 ГБ

В этой теме нет новых непрочитанных сообщений. Танцы со звездами. Сезон 2013. [Выпуск 01] (2013) HDTV 1080i от MediaClub

0 | 5

13.11 ГБ

В этой теме нет новых непрочитанных сообщений. Танцы со звездами. Сезон 2013. [Выпуск 02] (2013) HDTV 1080i от MediaClub

2 | 4

11.67 ГБ

В этой теме нет новых непрочитанных сообщений. Успеть до полуночи. Первый (1) сезон. [Выпуск 01-10] (2013) SATRip

0 | 1

4.88 ГБ

В этой теме нет новых непрочитанных сообщений. Биатлон с Дмитрием Губерниевым. Сезон 2015-16 [Выпуск 08] (2015-16) HDTV 1080i

19 | 4

1.54 ГБ




Вы не можете начинать темы
Вы не можете отвечать на сообщения
Вы не можете редактировать свои сообщения
Вы не можете удалять свои сообщения
Вы не можете добавлять вложения

Перейти:  
Для Мосгорсуда, Роскомнадзора и рекламодателей: mosgorsud-torrent[собачка]yandex.ru
 Вход
ppkBB3cker v.2 © 2008-2014 @ PPK
[ Time : 0.039s | 14 Queries | GZIP : Off ]

Торрент трекер RUTOR.IN, Не можете зайти на rutor.org? Какой новый адрес рутор? Какое зеркало рутор? Не работает rutor.org и зеркала? Тогда наш торрент специально для вас. Rutor.in неофициальное зеркало rutor. В случае если у Вас заблокирован rutor или вдруг Вы не можете на него зайти, то Вы без труда сможете скачать бесплатно и без рекламы последние новинки кино, игр, сериалов и прочего у нас, на Rutor.in. Не нужно использовать прокси, чтобы зайти на рутор, достаточно воспользоваться нашим ресурсом. Все новые фильмы, игры, сериалы, книги и музыка за 2013 и 2014 годы через торрент бесплатно. Скачивайте фильмы в хорошем качестве, игры для пк, xbox, playstation без регистрации. У нас вы найдете новые Зарубежные сериалы и Русские сериалы 2013, 2014, 2015 годов. Оставайтесь с нами, качайте любимые фильмы, игры, сериалы, книги и музыку.