img image001 image001 image001 image001 image001 image001 image001 image001 image001 image001 image001 image001 image001 image001 image001

Planets Sun Sun Sun
Статистика раздачи
Автор: PriZraK | Размер: 14.33 ГБ | Добавлен: 15 фев 2014
Раздают: 0    Качают: 3
Скачать торрент
Скачать торрент
Описание торрента

СообщениеДобавлено: 15 фев 2014 

Повтори! Первый сезон. Выпуск 01-08 (Из ??)

Год выпуска: 2013
Страна: Россия
Жанр: Юмор, Тв-шоу
Продолжительность: 02:00:00
Перевод: Не требуется
Русские субтитры: нет

Описание: Шоу «Повтори!» – это шоу перевоплощений, где в пародийных конкурсах сойдутся 10 участников. На суд зрителей и профессионального жюри будут представлены пародии на известных актеров, телеведущих, политиков и звезд шоу-бизнеса. На звание мастера пародий претендуют: Нонна Гришаева, Александр Олешко, Елена Воробей, Михаил Грушевский, Валерий Пономаренко, Анна Большова, Камиль Ларин, Валерия Ланская, Даниил Щебланов, Марк Тишман. Бои пройдут в категориях: «Эстрада», «Музыкальная пародия», «Лицо с обложки», «Телефонный розыгрыш» и т.д. В каждом выпуске соревнования будут проходить в пяти жанрах. Каждый конкурсный день артисты, согласно жребию, разбиваются на пары: каждая пара представит номера в одном из пяти пародийных жанров. Таким образом, судьям не придется сравнивать эстрадный монолог Жванецкого с песней Тамары Гвердцители. Каждая дуэль оценивается членами жюри: каждое «да» от судей добавляет в копилку участника 1 балл. Эти оценки, складываясь от вечера к вечеру, и составят общий результат, с которым участник подойдет к финалу. Кроме того, в конце каждого конкурсного дня у судей есть возможность распределить «бонусный балл», которым он может дополнительно поощрить любого артиста. Сергей Бурунов, известный по блестящим пародиям в «Большой разнице», взял на себя роль наставника участников турнира, помогая им в работе над образами.
Доп. информация: Релиз -


Рип чистый. Без посторонних надписей. Выкладывается как есть.

Качество: HDTVRip
Формат: AVI
Видео кодек: XVID
Аудио кодек: MP3
Видео: 720x400 (16:9) 23.976 fps 2 100 Kbps, 0.292 bit/pixel
Аудио: MPEG Audio, 48000Hz, 2 channels, 192 Кбит/сек





GeneralComplete name : D:ВыкладкаПовтори! Первый сезон (2013, Юмор, Тв-шоу, HDTVRip) (MYDIMKA)1 выпуск (03.11.2013).aviFormat : AVIFormat/Info : Audio Video InterleaveFile size : 1.86 GiBDuration : 1h 57mnOverall bit rate : 2 275 KbpsWriting application : VirtualDubMod 1.5.10.3 | www.virtualdub-fr.org || (build 2550/release)Writing library : VirtualDubMod build 2550/release

VideoID : 0Format : MPEG-4 VisualFormat profile : Advanced Simple@L5Format settings, BVOP : 2Format settings, QPel : NoFormat settings, GMC : No warppointsFormat settings, Matrix : Default (H.263)Codec ID : XVIDCodec ID/Hint : XviDDuration : 1h 57mnBit rate : 2 074 KbpsWidth : 720 pixelsHeight : 400 pixelsDisplay aspect ratio : 16:9Frame rate : 25.000 fpsColor space : YUVChroma subsampling : 4:2:0Bit depth : 8 bitsScan type : ProgressiveCompression mode : LossyBits/(Pixel*Frame) : 0.288Stream size : 1.70 GiB (91%)Writing library : XviD 1.2.1 (UTC 2008-12-04)

AudioID : 1Format : MPEG AudioFormat version : Version 1Format profile : Layer 3Codec ID : 55Codec ID/Hint : MP3Duration : 1h 57mnBit rate mode : ConstantBit rate : 192 KbpsChannel count : 2 channelsSampling rate : 48.0 KHzCompression mode : LossyStream size : 161 MiB (8%)Alignment : Aligned on interleavesInterleave, duration : 40 ms (1.00 video frame)Interleave, preload duration : 504 msWriting library : LAME3.99rEncoding settings : -m s -V 4 -q 2 -lowpass 18.6 -b 192



   Похожие торренты   Торрент   Размер 
В этой теме нет новых непрочитанных сообщений. Повтори! Первый сезон [Выпуск 01-06] (2013) HDTVRip 720p

0 | 1

16.08 ГБ

В этой теме нет новых непрочитанных сообщений. Повтори! Первый сезон [Выпуск 01-08] (2013) HDTV 1080i

0 | 2

67.73 ГБ

В этой теме нет новых непрочитанных сообщений. Успеть до полуночи. Первый (1) сезон. [Выпуск 01-10] (2013) SATRip

0 | 1

4.88 ГБ

В этой теме нет новых непрочитанных сообщений. Танцуй. Первый сезон. Выпуск 02 [эфир от 21.02] (2015) SATRemux от -=HD-NET=-

101 | 10

2.43 ГБ

В этой теме нет новых непрочитанных сообщений. Живой звук. Первый сезон [Выпуски 01-12] (2013) HDTVRip

2 | 3

14.79 ГБ

В этой теме нет новых непрочитанных сообщений. Битва Хоров. Сезон 02. [Выпуск 01-09] (2013) HDTVRip

0 | 38

13.87 ГБ

В этой теме нет новых непрочитанных сообщений. Битва Хоров. Сезон 02. [Выпуск 01-08] (2013) HDTVRip 720p

0 | 1

31.13 ГБ




Вы не можете начинать темы
Вы не можете отвечать на сообщения
Вы не можете редактировать свои сообщения
Вы не можете удалять свои сообщения
Вы не можете добавлять вложения

Перейти:  
Для Мосгорсуда, Роскомнадзора и рекламодателей: mosgorsud-torrent[собачка]yandex.ru
 Вход
ppkBB3cker v.2 © 2008-2014 @ PPK
[ Time : 0.104s | 14 Queries | GZIP : Off ]

Торрент трекер RUTOR.IN, Не можете зайти на rutor.org? Какой новый адрес рутор? Какое зеркало рутор? Не работает rutor.org и зеркала? Тогда наш торрент специально для вас. Rutor.in неофициальное зеркало rutor. В случае если у Вас заблокирован rutor или вдруг Вы не можете на него зайти, то Вы без труда сможете скачать бесплатно и без рекламы последние новинки кино, игр, сериалов и прочего у нас, на Rutor.in. Не нужно использовать прокси, чтобы зайти на рутор, достаточно воспользоваться нашим ресурсом. Все новые фильмы, игры, сериалы, книги и музыка за 2013 и 2014 годы через торрент бесплатно. Скачивайте фильмы в хорошем качестве, игры для пк, xbox, playstation без регистрации. У нас вы найдете новые Зарубежные сериалы и Русские сериалы 2013, 2014, 2015 годов. Оставайтесь с нами, качайте любимые фильмы, игры, сериалы, книги и музыку.