img image001 image001 image001 image001 image001 image001 image001 image001 image001 image001 image001 image001 image001 image001 image001

Planets Sun Sun Sun
Статистика раздачи
Автор: PriZraK | Размер: 6.33 ГБ | Добавлен: 15 фев 2014
Раздают: 0    Качают: 3
Скачать торрент
Скачать торрент
Описание торрента

СообщениеДобавлено: 15 фев 2014 

Ледниковый период. Кубок профессионалов. Выпуск 01-02 (Из ??)

Год выпуска: 2014
Страна: Россия
Жанр: Фигурное катание, Тв-шоу
Продолжительность: 02:00:00 / выпуск
Перевод: Не требуется
Русские субтитры: нет

Описание: Олимпийские чемпионы и чемпионы мира и Европы по фигурному катанию – парники, одиночники и танцоры на льду встретятся лицом к лицу в рамках невероятного турнира на Первом канале – «Ледниковый период. Кубок профессионалов»! «Считанные недели остались до открытия Олимпийских игр в Сочи, – рассказывает продюсер и режиссер проекта Илья Авербух. – И мы с нетерпением ждем, как выступят наши фигуристы на этом самом главном соревновании в их жизни. В 2014 году на Олимпиаде впервые будут разыграны 5 комплектов наград. К индивидуальным соревнованиям среди мужчин и среди женщин, соревнованиям в парном катании и танцах на льду впервые добавляются командные соревнования – состязания лучших национальных команд. В преддверии Олимпиады мы решили разыграть свои медали в командном и индивидуальном первенстве». Соревнования в «Кубке профессионалов», как и на грядущей Олимпиаде, начнутся с командного соревнования. На льду лицом к лицу встретятся две команды – «Сборная России» и «Сборная мира», которые покажут короткие программы и произвольный танец. После этого все участники «Кубка профессионалов» выступят в индивидуальном зачете. В финальном выпуске проекта зрителей ждут показательные выступления.

«Сборная России»:
Алексей Ягудин – трехкратный чемпион Европы, четырехкратный чемпион мира, олимпийский чемпион.
Ирина Слуцкая – семикратная чемпионка Европы, двукратная чемпионка мира, серебряный призер Олимпийских игр.
Татьяна Навка и Роман Костомаров – трехкратные чемпионы Европы, двукратные чемпионы мира, олимпийские чемпионы в танцах на льду.
Оксана Домнина и Максим Шабалин – двукратные чемпионы Европы, чемпионы мира, бронзовые призеры Олимпийских игр в танцах на льду.
Мария Петрова и Алексей Тихонов – двукратные чемпионы Европы, чемпионы мира в парном катании.
Татьяна Тотьмянина и Максим Маринин – пятикратные чемпионы Европы, двукратные чемпионы мира, олимпийские чемпионы в парном катании.

«Сборная мира»:
Стефан Ламбьель – двукратный чемпион мира, серебряный призер Олимпийских игр, Швейцария.
Сара Майер – чемпионка Европы, Швейцария.
Фиона Залдуа и Дмитрий Суханов – призеры чемпионатов среди профессионалов в парном катании, Великобритания.
Елена Леонова и Андрей Хвалько – двукратные чемпионы мира среди профессионалов в парном катании, США.
Албена Денкова и Максим Ставиский – многократные призеры чемпионатов Европы, двукратные чемпионы мира по танцам на льду, Болгария.
Маргарита Дробязко и Повилас Ванагас – призеры чемпионатов Европы и мира по танцам на льду, Литва.

Оценивать мастерство участников проекта «Ледниковый период. Кубок профессионалов» будет жюри, состоящее из профессионалов фигурного катания: Татьяна Тарасова, Елена Чайковская, Виктор Петренко, Игорь Шпильбанд, Олег Васильев. Постановщики номеров: Илья Авербух и Александр Жулин.

Ведущие проекта: Анастасия Заворотнюк и Петр Чернышев.

Источник: собственный рип
Доп. информация: Релиз -


Рип чистый. Без посторонних надписей. Выкладывается как есть.

Качество: HDTVRip 720p
Контейнер: MKV
Видео кодек: H.264
Аудио кодек: AC3
Видео: 1280x720 (16:9) 25.000 fps ~ 3 338 Kbps, 0.145 bit/pixel
Аудио: AC3, 384 Кбит/сек







General
Unique ID : 205992195906162691279947199659912774083 (0x9AF8A7621892EF47B91031E18654C1C3)
Complete name : G:ВЫКЛАДКАЛедниковый период. Кубок профессионалов (2014, Фигурное катание, Тв-шоу, HDTVRip 720p) (MYDIMKA)\01 выпуск (12.01.2014).mkv
Format : Matroska
Format version : Version 2
File size : 3.19 GiB
Duration : 2h 0mn
Overall bit rate : 3 797 Kbps
Encoded date : UTC 2014-01-13 04:54:25
Writing application : mkvmerge v5.8.0 ('No Sleep / Pillow') built on Sep 2 2012 15:37:04
Writing library : libebml v1.2.3 + libmatroska v1.3.0

Video
ID : 1
Format : AVC
Format/Info : Advanced Video Codec
Format profile : High@L4.0
Format settings, CABAC : Yes
Format settings, ReFrames : 8 frames
Codec ID : V_MPEG4/ISO/AVC
Duration : 2h 0mn
Bit rate : 3 338 Kbps
Width : 1 280 pixels
Height : 720 pixels
Display aspect ratio : 16:9
Frame rate mode : Constant
Frame rate : 25.000 fps
Color space : YUV
Chroma subsampling : 4:2:0
Bit depth : 8 bits
Scan type : Progressive
Bits/(Pixel*Frame) : 0.145
Stream size : 2.81 GiB (88%)
Writing library : x264 core 125 r2208 d9d2288
Encoding settings : cabac=1 / ref=8 / deblock=1:-1:-1 / analyse=0x3:0x133 / me=umh / subme=7 / psy=1 / psy_rd=1.00:0.10 / mixed_ref=1 / me_range=16 / chroma_me=1 / trellis=2 / 8x8dct=1 / cqm=0 / deadzone=21,11 / fast_pskip=0 / chroma_qp_offset=-3 / threads=12 / lookahead_threads=2 / sliced_threads=0 / nr=0 / decimate=1 / interlaced=0 / bluray_compat=0 / constrained_intra=0 / bframes=3 / b_pyramid=2 / b_adapt=2 / b_bias=0 / direct=3 / weightb=1 / open_gop=0 / weightp=2 / keyint=250 / keyint_min=25 / scenecut=40 / intra_refresh=0 / rc_lookahead=50 / rc=crf / mbtree=1 / crf=21.0 / qcomp=0.60 / qpmin=0 / qpmax=69 / qpstep=4 / ip_ratio=1.40 / aq=1:1.00
Default : Yes
Forced : No

Audio
ID : 2
Format : AC-3
Format/Info : Audio Coding 3
Mode extension : CM (complete main)
Format settings, Endianness : Big
Codec ID : A_AC3
Duration : 2h 0mn
Bit rate mode : Constant
Bit rate : 384 Kbps
Channel count : 2 channels
Channel positions : Front: L R
Sampling rate : 48.0 KHz
Bit depth : 16 bits
Compression mode : Lossy
Stream size : 330 MiB (10%)
Default : Yes
Forced : No



   Похожие торренты   Торрент   Размер 
В этой теме нет новых непрочитанных сообщений. Ледниковый период. Кубок профессионалов. [Выпуск 01-02] (2013) HDTVRip

0 | 3

3.96 ГБ

В этой теме нет новых непрочитанных сообщений. Ледниковый период. Кубок профессионалов. [Выпуск 01-02] (2013) HDTV 1080i

0 | 3

22.12 ГБ

В этой теме нет новых непрочитанных сообщений. Ледниковый период. Кубок профессионалов [02] (2012) DVB

0 | 2

3.19 ГБ

В этой теме нет новых непрочитанных сообщений. Ледниковый период. Кубок профессионалов [01] (2012) DVB

0 | 2

2.95 ГБ

В этой теме нет новых непрочитанных сообщений. Ледниковый период. Кубок профессионалов [01-04] (2014) SATRip

228 | 28

6.09 ГБ

В этой теме нет новых непрочитанных сообщений. Ледниковый период - 2013. [Выпуск 01-16] (2013) HDTVRip 720p

0 | 3

63.07 ГБ

В этой теме нет новых непрочитанных сообщений. Ледниковый период - 2013. [Выпуск 01-16] (2013) HDTVRip

2 | 3

39.29 ГБ




Вы не можете начинать темы
Вы не можете отвечать на сообщения
Вы не можете редактировать свои сообщения
Вы не можете удалять свои сообщения
Вы не можете добавлять вложения

Перейти:  
Для Мосгорсуда, Роскомнадзора и рекламодателей: mosgorsud-torrent[собачка]yandex.ru
 Вход
ppkBB3cker v.2 © 2008-2014 @ PPK
[ Time : 0.593s | 14 Queries | GZIP : On ]

Торрент трекер RUTOR.IN, Не можете зайти на rutor.org? Какой новый адрес рутор? Какое зеркало рутор? Не работает rutor.org и зеркала? Тогда наш торрент специально для вас. Rutor.in неофициальное зеркало rutor. В случае если у Вас заблокирован rutor или вдруг Вы не можете на него зайти, то Вы без труда сможете скачать бесплатно и без рекламы последние новинки кино, игр, сериалов и прочего у нас, на Rutor.in. Не нужно использовать прокси, чтобы зайти на рутор, достаточно воспользоваться нашим ресурсом. Все новые фильмы, игры, сериалы, книги и музыка за 2013 и 2014 годы через торрент бесплатно. Скачивайте фильмы в хорошем качестве, игры для пк, xbox, playstation без регистрации. У нас вы найдете новые Зарубежные сериалы и Русские сериалы 2013, 2014, 2015 годов. Оставайтесь с нами, качайте любимые фильмы, игры, сериалы, книги и музыку.