img image001 image001 image001 image001 image001 image001 image001 image001 image001 image001 image001 image001 image001 image001 image001

Planets Sun Sun Sun
Статистика раздачи
Автор: PriZraK | Размер: 709.59 МБ | Добавлен: 15 фев 2014
Раздают: 143    Качают: 2
Скачать торрент
Скачать торрент
Описание торрента

СообщениеДобавлено: 15 фев 2014 

Информация о фильме
Название: Как фишка ляжет
Год выхода: 2014
Жанр: ток-шоу, ТВ-Шоу, travel-шоу
В ролях: Андрей Бедняков и Настя Короткая

О фильме:
Настя Короткая и Андрей Бедняков сдают пароли и явки
Любимые ведущие знаменитой программы телеканала Пятница! Андрей и Настя объехали весь мир. Пока они снимали «Орел и решка» каждый из них узнал кучу секретов, увидел массу того, что недоступно обычному туристу, познакомился со множеством нужных людей в самых удаленных уголках планеты. Где выгоднее? Как меньше потратить? Где настоящее, а где поддельное? Как быстрее? Что вкуснее? Андрей Бедняков и Настя Короткая открыли столько фишек, что давно перешли на уровень профессиональных путешественников.
И вот они поспорили – чьи фишки круче? Судите сами. У каждого ведущего есть карта половины города, мобильный телефон и миссия – за два дня проложить авторский маршрут, отыскав самые необычные места, достопримечательности и прочие возможности для интересного досуга по приемлемой цене.
А вы смотрите новую программу «Как фишка ляжет», и хорошенько все запоминайте – ведь можно путешествовать по обычному путеводителю, а можно, используя уникальные фишки от ведущих «Орла и решки»!
Кстати, программа «Орел и решка» никуда не делась. Ее в эфире телеканала Пятница! станет только больше – мы сняли новый сезон.

1. Эфир от 26.01.2014 - ЛИССАБОН (ПОРТУГАЛИЯ)

Официальный сайт
Официальное сообщество в vk.com

Страна: Россия
Студия: Телеканал "Пятница", Индиго Продакшн
Продолжительность: 00:46:10
Перевод: Не требуется

Файл
Кодек: XviD / MP3
Качество: SATRip
Видео: XviD, 720x400 (16:9), 25.000 fps, 1 949 Kbps (0.271 bit/pixel)
Звук: MP3, 48.0 KHz, 2 ch, 192 Kbps, CBR

General
Complete name : /Как фишка ляжет/001.Kak. fishka. ljazhet. Lissabon (2014.01.26).2014.SATRip.avi
Format : AVI
Format/Info : Audio Video Interleave
File size : 710 MiB
Duration : 46mn 10s
Overall bit rate : 2 149 Kbps
Writing library : TMPGEnc 4.0 XPress Version. 4.7.7.307

Video
ID : 0
Format : MPEG-4 Visual
Format profile : Simple@L3
Format settings, BVOP : No
Format settings, QPel : No
Format settings, GMC : No warppoints
Format settings, Matrix : Default (H.263)
Codec ID : XVID
Codec ID/Hint : XviD
Duration : 46mn 10s
Bit rate : 1 949 Kbps
Width : 720 pixels
Height : 400 pixels
Display aspect ratio : 16:9
Frame rate : 25.000 fps
Color space : YUV
Chroma subsampling : 4:2:0
Bit depth : 8 bits
Scan type : Progressive
Compression mode : Lossy
Bits/(Pixel*Frame) : 0.271
Stream size : 644 MiB (91%)
Writing library : XviD 1.2.1 (UTC 2008-12-04)

Audio
ID : 1
Format : MPEG Audio
Format version : Version 1
Format profile : Layer 3
Mode : Joint stereo
Mode extension : MS Stereo
Codec ID : 55
Codec ID/Hint : MP3
Duration : 46mn 10s
Bit rate mode : Constant
Bit rate : 192 Kbps
Channel(s) : 2 channels
Sampling rate : 48.0 KHz
Compression mode : Lossy
Stream size : 63.4 MiB (9%)
Alignment : Split accross interleaves
Interleave, duration : 250 ms (6.25 video frames)
Interleave, preload duration : 222 ms
Writing library : LAME3.98.2
Раздача ведётся путём добавления новых серий; при каждом добавлении создаётся новый торрент. Чтобы начать докачку новой серии, пользователям необходимо сделать следующее:
(1) остановить скачивание,
(2) удалить старый торрент у себя из клиента (старые серии удалять не надо),
(3) скачать новый торрент и запустить его у себя в клиенте вместо старого, при этом указать клиенту путь в старую папку куда и должно происходить скачивание новых серий.

Ваш клиент при этом должен произвести хеширование (проверку) старой папки (если не производит сам - помогите ему сделать это), и будет докачивать только те серии которых у вас ещё нет. Старые серии при этом не удаляются, а продолжают раздаваться!

Eсли вы уже удалили старые серии, то предотвратить повторную закачку старых серий можно, отжав галочку в соответствующих местах при запуске нового торрента. По возможности, желательно не удалять старые серии как можно дольше чтобы релизёр не столько продолжал раздавать старые серии, а смог сконцентрироваться на новых.



   Похожие торренты   Торрент   Размер 
В этой теме нет новых непрочитанных сообщений. Как фишка ляжет [01] (2014) WEBRip

28 | 3

518.95 МБ

В этой теме нет новых непрочитанных сообщений. Криминальная фишка от Генри / Henry's Crime (2010) HDRip

4 | 3

703.76 МБ

В этой теме нет новых непрочитанных сообщений. Криминальная фишка от Генри / Henry's Crime (2010) BDRemux

1 | 2

17.91 ГБ

В этой теме нет новых непрочитанных сообщений. Криминальная фишка от Генри / Henry's Crime (2011) BDRip-AVC | D

165 | 9

745.59 МБ

В этой теме нет новых непрочитанных сообщений. Криминальная фишка от Генри / Henry's Crime (2011) DVD5 от Youtracker | D

2 | 2

4.37 ГБ

В этой теме нет новых непрочитанных сообщений. Криминальная фишка от Генри / Henry's Crime (2010) BDRip от HQCLUB

140 | 6

2.18 ГБ

В этой теме нет новых непрочитанных сообщений. Криминальная фишка от Генри / Henry's Crime (2010) HDRip | Лицензия

81 | 3

1.37 ГБ




Вы не можете начинать темы
Вы не можете отвечать на сообщения
Вы не можете редактировать свои сообщения
Вы не можете удалять свои сообщения
Вы не можете добавлять вложения

Перейти:  
Для Мосгорсуда, Роскомнадзора и рекламодателей: mosgorsud-torrent[собачка]yandex.ru
 Вход
ppkBB3cker v.2 © 2008-2014 @ PPK
[ Time : 0.023s | 15 Queries | GZIP : Off ]

Торрент трекер RUTOR.IN, Не можете зайти на rutor.org? Какой новый адрес рутор? Какое зеркало рутор? Не работает rutor.org и зеркала? Тогда наш торрент специально для вас. Rutor.in неофициальное зеркало rutor. В случае если у Вас заблокирован rutor или вдруг Вы не можете на него зайти, то Вы без труда сможете скачать бесплатно и без рекламы последние новинки кино, игр, сериалов и прочего у нас, на Rutor.in. Не нужно использовать прокси, чтобы зайти на рутор, достаточно воспользоваться нашим ресурсом. Все новые фильмы, игры, сериалы, книги и музыка за 2013 и 2014 годы через торрент бесплатно. Скачивайте фильмы в хорошем качестве, игры для пк, xbox, playstation без регистрации. У нас вы найдете новые Зарубежные сериалы и Русские сериалы 2013, 2014, 2015 годов. Оставайтесь с нами, качайте любимые фильмы, игры, сериалы, книги и музыку.