img image001 image001 image001 image001 image001 image001 image001 image001 image001 image001 image001 image001 image001 image001 image001

Planets Sun Sun Sun
Статистика раздачи
Автор: PriZraK | Размер: 3.17 ГБ | Добавлен: 15 фев 2014
Раздают: 123    Качают: 5
Скачать торрент
Скачать торрент
Описание торрента

СообщениеДобавлено: 15 фев 2014 

Информация о фильме
Название: Топ Гир
Оригинальное название: Top Gear
Год выхода: 2014
Жанр: Авто-шоу
Режиссер: Энди Уилман
В ролях: Джереми Кларксон (Jeremy Clarkson), Ричард Хаммонд (Richard Hammond), Джеймс Мэй (James May), Стиг (The Stig)

О фильме:
Aвто-шоу «Top Gear» — это программа абсолютно новой формации для телезрителей прогрессивного толка. В ней нет ни слова о недорогих семейных автомобилях, нет занудных советов автолюбителям, да и банального cлова «автолюбитель» в ней тоже нет.
Это программа для настоящих фанатов роскошных, безумно дорогих и самых быстрых автомобилей, для настоящих ценителей запаха бензина и пылающих тормозных дисков, для тех, кому не безразличен экстремальный драйв.
Эксперты программы, профессионалы высочайшего класса, способны вынести справедливый вердикт любому сверхсовременному спорткару.
Официальный сайт

Страна: Великобритания
Студия: British Broadcasting Corporation (BBC)
Продолжительность: 01:01:59
Перевод: Отсутствует

Общее
Идентификатор : 1 (0x1)
Полное имя : C:UsersAmberDesktopTop.Gear.S21.1080i.HDTV.DD2.0.H.264Top.Gear.S21E01.1080i.HDTV.DD2.0.H.264.ts
Формат : MPEG-TS
Размер файла : 3,17 Гбайт
Продолжительность : 1 ч. 1 м.
Режим общего битрейта : Переменный
Общий поток : 7331 Кбит/сек

Видео
Идентификатор : 5500 (0x157C)
Идентификатор меню : 1 (0x1)
Формат : AVC
Формат/Информация : Advanced Video Codec
Профиль формата : High@L4.0
Параметр CABAC формата : Да
Параметр ReFrames формата : 4 кадра
Идентификатор кодека : 27
Продолжительность : 1 ч. 1 м.
Битрейт : 6775 Кбит/сек
Ширина : 1920 пикселей
Высота : 1080 пикселей
Соотношение сторон : 16:9
Частота кадров : 25,000 кадров/сек
Стандарт вещания : Component
Цветовое пространство : YUV
Субдискретизация насыщенности : 4:2:0
Битовая глубина : 8 бит
Тип развёртки : MBAFF
Бит/(Пиксели*Кадры) : 0.131
Размер потока : 2,93 Гбайт (92%)
Основные цвета : BT.709
Характеристики трансфера : BT.709
Коэффициенты матрицы : BT.709

Аудио
Идентификатор : 5501 (0x157D)
Идентификатор меню : 1 (0x1)
Формат : AC-3
Формат/Информация : Audio Coding 3
Расширение режима : CM (complete main)
Параметр Endianness формата : Big
Идентификатор кодека : 6
Продолжительность : 1 ч. 1 м.
Вид битрейта : Постоянный
Битрейт : 192 Кбит/сек
Каналы : 2 канала
Расположение каналов : Front: L R
Частота : 48,0 КГц
Битовая глубина : 16 бит
Метод сжатия : С потерями
Размер потока : 85,1 Мбайт (3%)
Язык : English

Текст
Идентификатор : 5504 (0x1580)
Идентификатор меню : 1 (0x1)
Формат : DVB Subtitle
Идентификатор кодека : 6
Продолжительность : 1 ч. 1 м.
Задержка видео : 898 мс.
Язык : English


Файл
Кодек: H.264
Качество: HDTV 1080i
Видео: MPEG-4 AVC, 1920x1080, 25 fps, ~7 Mbps
Звук: AC3, 48 kHz, 2 ch, ~192 kbps avg
Субтитры: русские

Семпл




   Похожие торренты   Торрент   Размер 
В этой теме нет новых непрочитанных сообщений. Топ Гир / Top Gear [21х01-04 из 07] (2014) HDTVRip

97 | 277

7.15 ГБ

В этой теме нет новых непрочитанных сообщений. Топ Гир / Top Gear [21х01-05] (2014) HDTVRip 720p | IdeaFilm

295 | 1177

7.73 ГБ

В этой теме нет новых непрочитанных сообщений. Топ Гир / Top Gear [21х01-03] (2014) HDTVRip 720p | IdeaFilm

3 | 305

4.67 ГБ

В этой теме нет новых непрочитанных сообщений. Топ Гир / Top Gear [21х01-06] (2014) HDTVRip 720p | IdeaFilm

387 | 1633

9.58 ГБ

В этой теме нет новых непрочитанных сообщений. Топ Гир: Спецвыпуск в Патагонии (1-2 части) / Top Gear: Top Gear: Patagonia Special (part 1-2) [02x02] (2014) HDTV 1080i от AlexFilm

2251 | 528

6.22 ГБ

В этой теме нет новых непрочитанных сообщений. Топ Гир / Top Gear [21х01-02] (2014) HDTVRip 720p | Gears Media

744 | 749

3.29 ГБ

В этой теме нет новых непрочитанных сообщений. Топ Гир / Top Gear [21х01-03] (2014) HDTVRip 720p | Gears Media

127 | 402

4.61 ГБ




Вы не можете начинать темы
Вы не можете отвечать на сообщения
Вы не можете редактировать свои сообщения
Вы не можете удалять свои сообщения
Вы не можете добавлять вложения

Перейти:  
Для Мосгорсуда, Роскомнадзора и рекламодателей: mosgorsud-torrent[собачка]yandex.ru
 Вход
ppkBB3cker v.2 © 2008-2014 @ PPK
[ Time : 0.061s | 15 Queries | GZIP : Off ]

Торрент трекер RUTOR.IN, Не можете зайти на rutor.org? Какой новый адрес рутор? Какое зеркало рутор? Не работает rutor.org и зеркала? Тогда наш торрент специально для вас. Rutor.in неофициальное зеркало rutor. В случае если у Вас заблокирован rutor или вдруг Вы не можете на него зайти, то Вы без труда сможете скачать бесплатно и без рекламы последние новинки кино, игр, сериалов и прочего у нас, на Rutor.in. Не нужно использовать прокси, чтобы зайти на рутор, достаточно воспользоваться нашим ресурсом. Все новые фильмы, игры, сериалы, книги и музыка за 2013 и 2014 годы через торрент бесплатно. Скачивайте фильмы в хорошем качестве, игры для пк, xbox, playstation без регистрации. У нас вы найдете новые Зарубежные сериалы и Русские сериалы 2013, 2014, 2015 годов. Оставайтесь с нами, качайте любимые фильмы, игры, сериалы, книги и музыку.