img image001 image001 image001 image001 image001 image001 image001 image001 image001 image001 image001 image001 image001 image001 image001

Planets Sun Sun Sun
Статистика раздачи
Автор: PriZraK | Размер: 3.55 ГБ | Добавлен: 15 фев 2014
Раздают: 159    Качают: 302
Скачать торрент
Скачать торрент
Описание торрента

СообщениеДобавлено: 15 фев 2014 

Информация о фильме
Название: Топ Гир
Оригинальное название: Top Gear
Год выхода: 2014
Жанр: Авто-шоу
Режиссер: Энди Уилман
В ролях: Джереми Кларксон (Jeremy Clarkson), Ричард Хаммонд (Richard Hammond), Джеймс Мэй (James May), Стиг (The Stig)

О фильме:
Aвто-шоу «Top Gear» — это программа абсолютно новой формации для телезрителей прогрессивного толка. В ней нет ни слова о недорогих семейных автомобилях, нет занудных советов автолюбителям, да и банального cлова «автолюбитель» в ней тоже нет.
Это программа для настоящих фанатов роскошных, безумно дорогих и самых быстрых автомобилей, для настоящих ценителей запаха бензина и пылающих тормозных дисков, для тех, кому не безразличен экстремальный драйв.
Эксперты программы, профессионалы высочайшего класса, способны вынести справедливый вердикт любому сверхсовременному спорткару.
Официальный сайт

Страна: Великобритания
Студия: British Broadcasting Corporation (BBC)
Продолжительность: ~ 01:02:00
Перевод: Профессиональный (многоголосый закадровый) - Jetvis Studio & RG.paravozik

Перевод: Андрей Шульдешов и Михаил Кульдяев
Озвучка: Jetvis Studio & RG.paravozik
Роли озвучивали: Сергей Битюцкий, Иван Назаров, Михаил Вельмискин.
А также: Алекса Мельник, Екатерина Дмитрова.

Файл
Кодек: H.264
Качество: HDTVRip
Видео: 1280x720 (16:9), 25.000 fps, ~3500 kbps, ~0.152 bit/pixel
Звук:
Аудио RUS: 48 kHz, AC3, 2 ch, ~192.00 kbps avg
Аудио ENG: 48 kHz, AC3, 2 ch, ~192.00 kbps avg
Субтитры:
Нет

Общее
Полное имя : C:UsersAmberDesktopTop Gear S21 E01-02AudioTop.Gear.S21E01.ac3
Формат : AC-3
Формат/Информация : Audio Coding 3
Размер файла : 85,1 Мбайт
Продолжительность : 1 ч. 1 м.
Режим общего битрейта : Постоянный
Общий поток : 192 Кбит/сек

Аудио
Формат : AC-3
Формат/Информация : Audio Coding 3
Расширение режима : CM (complete main)
Параметр Endianness формата : Big
Продолжительность : 1 ч. 1 м.
Вид битрейта : Постоянный
Битрейт : 192 Кбит/сек
Каналы : 2 канала
Расположение каналов : Front: L R
Частота : 48,0 КГц
Битовая глубина : 16 бит
Метод сжатия : С потерями
Размер потока : 85,1 Мбайт (100%)

Общее
Полное имя : C:UsersAmberDesktopTop Gear S21 E01-02AudioTop.Gear.S21E02.ac3
Формат : AC-3
Формат/Информация : Audio Coding 3
Размер файла : 85,5 Мбайт
Продолжительность : 1 ч. 2 м.
Режим общего битрейта : Постоянный
Общий поток : 192 Кбит/сек

Аудио
Формат : AC-3
Формат/Информация : Audio Coding 3
Расширение режима : CM (complete main)
Параметр Endianness формата : Big
Продолжительность : 1 ч. 2 м.
Вид битрейта : Постоянный
Битрейт : 192 Кбит/сек
Каналы : 2 канала
Расположение каналов : Front: L R
Частота : 48,0 КГц
Битовая глубина : 16 бит
Метод сжатия : С потерями
Размер потока : 85,5 Мбайт (100%)

Общее
Уникальный идентификатор : 244207006228015864197686747922349516549 (0xB7B88EFFE8D734F9A618E9A684D56705)
Полное имя : C:UsersAmberDesktopTop Gear S21 E01-02Top.Gear.S21E01.mkv
Формат : Matroska
Версия формата : Version 4 / Version 2
Размер файла : 1,69 Гбайт
Продолжительность : 1 ч. 2 м.
Общий поток : 3877 Кбит/сек
Дата кодирования : UTC 2014-02-04 23:06:51
Программа кодирования : mkvmerge v6.6.0 ('The Edge Of The In Between') built on Dec 1 2013 17:55:00
Библиотека кодирования : libebml v1.3.0 + libmatroska v1.4.1

Видео
Идентификатор : 1
Формат : AVC
Формат/Информация : Advanced Video Codec
Профиль формата : High@L4.1
Параметр CABAC формата : Да
Параметр ReFrames формата : 3 кадра
Идентификатор кодека : V_MPEG4/ISO/AVC
Продолжительность : 1 ч. 2 м.
Битрейт : 3500 Кбит/сек
Ширина : 1280 пикселей
Высота : 720 пикселей
Соотношение сторон : 16:9
Режим частоты кадров : Постоянный
Частота кадров : 25,000 кадров/сек
Цветовое пространство : YUV
Субдискретизация насыщенности : 4:2:0
Битовая глубина : 8 бит
Тип развёртки : Прогрессивная
Бит/(Пиксели*Кадры) : 0.152
Размер потока : 1,49 Гбайт (88%)
Библиотека кодирования : x264 core 116 r2019M 9cc407d
Настройки программы : cabac=1 / ref=3 / deblock=1:0:0 / analyse=0x3:0x133 / me=hex / subme=7 / psy=1 / psy_rd=1.00:0.20 / mixed_ref=1 / me_range=16 / chroma_me=1 / trellis=1 / 8x8dct=1 / cqm=0 / deadzone=21,11 / fast_pskip=1 / chroma_qp_offset=-3 / threads=8 / sliced_threads=0 / nr=0 / decimate=1 / interlaced=0 / bluray_compat=0 / constrained_intra=0 / bframes=3 / b_pyramid=1 / b_adapt=2 / b_bias=0 / direct=3 / weightb=1 / open_gop=0 / weightp=2 / keyint=250 / keyint_min=25 / scenecut=40 / intra_refresh=0 / rc_lookahead=40 / rc=2pass / mbtree=1 / bitrate=3500 / ratetol=1.0 / qcomp=0.60 / qpmin=10 / qpmax=51 / qpstep=4 / cplxblur=20.0 / qblur=0.5 / ip_ratio=1.40 / aq=1:1.00
Default : Да
Forced : Нет

Аудио #1
Идентификатор : 2
Формат : AC-3
Формат/Информация : Audio Coding 3
Расширение режима : CM (complete main)
Параметр Endianness формата : Big
Идентификатор кодека : A_AC3
Продолжительность : 1 ч. 2 м.
Вид битрейта : Постоянный
Битрейт : 192 Кбит/сек
Каналы : 2 канала
Расположение каналов : Front: L R
Частота : 48,0 КГц
Битовая глубина : 16 бит
Метод сжатия : С потерями
Размер потока : 85,6 Мбайт (5%)
Заголовок : Jetvis Studio
Язык : Russian
Default : Да
Forced : Нет

Аудио #2
Идентификатор : 3
Формат : AC-3
Формат/Информация : Audio Coding 3
Расширение режима : CM (complete main)
Параметр Endianness формата : Big
Идентификатор кодека : A_AC3
Продолжительность : 1 ч. 2 м.
Вид битрейта : Постоянный
Битрейт : 192 Кбит/сек
Каналы : 2 канала
Расположение каналов : Front: L R
Частота : 48,0 КГц
Битовая глубина : 16 бит
Метод сжатия : С потерями
Размер потока : 85,6 Мбайт (5%)
Заголовок : Eng
Язык : English
Default : Нет
Forced : Нет

Общее
Уникальный идентификатор : 186682609788030440016628278844406493580 (0x8C71C348BE14DBF99DA5037213FDF18C)
Полное имя : C:UsersAmberDesktopTop Gear S21 E01-02Top.Gear.S21E02.mkv
Формат : Matroska
Версия формата : Version 4 / Version 2
Размер файла : 1,70 Гбайт
Продолжительность : 1 ч. 2 м.
Общий поток : 3869 Кбит/сек
Дата кодирования : UTC 2014-02-13 17:26:35
Программа кодирования : mkvmerge v6.6.0 ('The Edge Of The In Between') built on Dec 1 2013 17:55:00
Библиотека кодирования : libebml v1.3.0 + libmatroska v1.4.1

Видео
Идентификатор : 1
Формат : AVC
Формат/Информация : Advanced Video Codec
Профиль формата : High@L4.1
Параметр CABAC формата : Да
Параметр ReFrames формата : 3 кадра
Идентификатор кодека : V_MPEG4/ISO/AVC
Продолжительность : 1 ч. 2 м.
Битрейт : 3500 Кбит/сек
Ширина : 1280 пикселей
Высота : 720 пикселей
Соотношение сторон : 16:9
Режим частоты кадров : Постоянный
Частота кадров : 25,000 кадров/сек
Цветовое пространство : YUV
Субдискретизация насыщенности : 4:2:0
Битовая глубина : 8 бит
Тип развёртки : Прогрессивная
Бит/(Пиксели*Кадры) : 0.152
Размер потока : 1,49 Гбайт (88%)
Библиотека кодирования : x264 core 116 r2019M 9cc407d
Настройки программы : cabac=1 / ref=3 / deblock=1:0:0 / analyse=0x3:0x133 / me=hex / subme=7 / psy=1 / psy_rd=1.00:0.20 / mixed_ref=1 / me_range=16 / chroma_me=1 / trellis=1 / 8x8dct=1 / cqm=0 / deadzone=21,11 / fast_pskip=1 / chroma_qp_offset=-3 / threads=8 / sliced_threads=0 / nr=0 / decimate=1 / interlaced=0 / bluray_compat=0 / constrained_intra=0 / bframes=3 / b_pyramid=1 / b_adapt=2 / b_bias=0 / direct=3 / weightb=1 / open_gop=0 / weightp=2 / keyint=250 / keyint_min=25 / scenecut=40 / intra_refresh=0 / rc_lookahead=40 / rc=2pass / mbtree=1 / bitrate=3500 / ratetol=1.0 / qcomp=0.60 / qpmin=10 / qpmax=51 / qpstep=4 / cplxblur=20.0 / qblur=0.5 / ip_ratio=1.40 / aq=1:1.00
Default : Да
Forced : Нет

Аудио #1
Идентификатор : 2
Формат : AC-3
Формат/Информация : Audio Coding 3
Расширение режима : CM (complete main)
Параметр Endianness формата : Big
Идентификатор кодека : A_AC3
Продолжительность : 1 ч. 2 м.
Вид битрейта : Постоянный
Битрейт : 192 Кбит/сек
Каналы : 2 канала
Расположение каналов : Front: L R
Частота : 48,0 КГц
Битовая глубина : 16 бит
Метод сжатия : С потерями
Размер потока : 86,2 Мбайт (5%)
Заголовок : Jetvis Studio
Язык : Russian
Default : Да
Forced : Нет

Аудио #2
Идентификатор : 3
Формат : AC-3
Формат/Информация : Audio Coding 3
Расширение режима : CM (complete main)
Параметр Endianness формата : Big
Идентификатор кодека : A_AC3
Продолжительность : 1 ч. 2 м.
Вид битрейта : Постоянный
Битрейт : 192 Кбит/сек
Каналы : 2 канала
Расположение каналов : Front: L R
Частота : 48,0 КГц
Битовая глубина : 16 бит
Метод сжатия : С потерями
Размер потока : 86,2 Мбайт (5%)
Заголовок : Eng
Язык : English
Default : Нет
Forced : Нет


Семпл



Релиз от: Jetvis Studio & RG.paravozik



   Похожие торренты   Торрент   Размер 
В этой теме нет новых непрочитанных сообщений. Топ Гир / Top Gear [21х01-06] (2014) HDTVRip 720p | Jetvis Studio & RG.paravozik

210 | 561

10.72 ГБ

В этой теме нет новых непрочитанных сообщений. Топ Гир / Top Gear [21х01 из 07] (2014) HDTVRip 720p | Jetvis Studio & RG.paravozik

1370 | 47

1.77 ГБ

В этой теме нет новых непрочитанных сообщений. Топ Гир / Top Gear [22х01-02 из 10] (2015) HDTVRip 720p | Jetvis Studio & RG.paravozik

172 | 146

2.84 ГБ

В этой теме нет новых непрочитанных сообщений. Топ Гир / Top Gear [22х01-05 из 10] (2015) HDTVRip 720p | Jetvis Studio & RG.paravozik

79 | 231

7.1 ГБ

В этой теме нет новых непрочитанных сообщений. Топ Гир / Top Gear [22х01-06 из 10] (2015) HDTVRip 720p | Jetvis Studio & RG.paravozik

212 | 564

8.51 ГБ

В этой теме нет новых непрочитанных сообщений. Топ Гир / Top Gear [22х01-04] (2015) HDTVRip 720p | Jetvis Studio & RG.paravozik

321 | 615

5.69 ГБ

В этой теме нет новых непрочитанных сообщений. Топ Гир / Top Gear [22х01-07 из 10] (2015) HDTVRip 720p | Jetvis Studio & RG.paravozik

315 | 677

9.93 ГБ




Вы не можете начинать темы
Вы не можете отвечать на сообщения
Вы не можете редактировать свои сообщения
Вы не можете удалять свои сообщения
Вы не можете добавлять вложения

Перейти:  
Для Мосгорсуда, Роскомнадзора и рекламодателей: mosgorsud-torrent[собачка]yandex.ru
 Вход
ppkBB3cker v.2 © 2008-2014 @ PPK
[ Time : 0.028s | 15 Queries | GZIP : Off ]

Торрент трекер RUTOR.IN, Не можете зайти на rutor.org? Какой новый адрес рутор? Какое зеркало рутор? Не работает rutor.org и зеркала? Тогда наш торрент специально для вас. Rutor.in неофициальное зеркало rutor. В случае если у Вас заблокирован rutor или вдруг Вы не можете на него зайти, то Вы без труда сможете скачать бесплатно и без рекламы последние новинки кино, игр, сериалов и прочего у нас, на Rutor.in. Не нужно использовать прокси, чтобы зайти на рутор, достаточно воспользоваться нашим ресурсом. Все новые фильмы, игры, сериалы, книги и музыка за 2013 и 2014 годы через торрент бесплатно. Скачивайте фильмы в хорошем качестве, игры для пк, xbox, playstation без регистрации. У нас вы найдете новые Зарубежные сериалы и Русские сериалы 2013, 2014, 2015 годов. Оставайтесь с нами, качайте любимые фильмы, игры, сериалы, книги и музыку.