img image001 image001 image001 image001 image001 image001 image001 image001 image001 image001 image001 image001 image001 image001 image001

Planets Sun Sun Sun
Статистика раздачи
Автор: Nickolas3434 | Размер: 1.82 ГБ | Добавлен: 17 фев 2014
Раздают: 282    Качают: 370
Скачать торрент
Скачать торрент
Описание торрента

СообщениеДобавлено: 17 фев 2014 

Информация о фильме
Название: Орёл и решка
Год выхода: 2014
Жанр: ток-шоу
Режиссер: Антон Щербаков
В ролях: Жанна Бадоева, Алан Бадоев, Андрей Бедняков, Леся Никитюк, Настя Короткая, Коля Серьга, Регина Тодоренко

О фильме:
"Орёл и решка" — познавательно-развлекательная программа о путешествиях. Каждая программа рассказывает об одной стране или городе с двух точек зрения путешественника, не ограниченного в средствах, и тотально экономного.

Ведущие в начале каждой программы подкидывают монетку, чтобы выяснить, кто из них летит с золотой кредитной карточкой, а кто – со 100 долларами. Конечно тот из ведущих, кто волею монетки получает золотую кредитку, вкушает все прелести страны по полной программе – к его услугам роскошные отели, рестораны, эксклюзивные развлечения, отдых, дорогой шоппинг, закрытые вечеринки, встречи с местными звездами.

Ну а если выпало лететь с минимальными деньгами... тоже не беда! Естественно придется экономить, находить бесплатные ночлеги или дешевые хостелы, путешествовать автостопом, ввязываться в авантюры, питаться тем, что попадает под руку или упало с дерева. Но это незабываемая возможность пережить настоящее приключение!

За шесть сезонов программы "Орел и решка" исколесили всю планету. Где только не ступала нога ведущих "Орла и решки". Кстати, выдержать вечные разъезды и перелеты не так-то просто. Вот и передавали они эстафету друг другу из сезона в сезон.
Алан и Жанна Бадоевы — 1 сезон
Андрей Бедняков и Жанна Бадоева — 2-3 сезоны
Андрей Бедняков и Леся Никитюк — 4-5 сезоны
Андрей Бедняков и Настя Короткая — 6-7 сезоны
Коля Серьга, Регина Тодоренко - 8 сезон

1. Эфир от 02.02.2014 - Мальдивы
1. Эфир от 09.02.2014 - Аддис-Абеба


Официальный сайт

Страна: Украина
Студия: TeenSpirit Studio
Продолжительность: 45 минут серия
Перевод: Не требуется

Файл
Кодек: DivX / MP3
Качество: SATRip
Видео: DivX 5, 704x400 (16:9), 25.000 fps, 1 848 Kbps (0.263 bit/pixel)
Звук: MP3, 48.0 KHz, 2 ch, 128 Kbps, CBR

General
Complete name : /Орел и решка. Сезон №8. На краю света. Мальдивы (2014.02.02).avi
Format : AVI
Format/Info : Audio Video Interleave
File size : 609 MiB
Duration : 42mn 52s
Overall bit rate : 1 986 Kbps
Writing library : Boilsoft AVI tool build 1/release

Video
ID : 0
Format : MPEG-4 Visual
Format settings, BVOP : 1
Format settings, QPel : No
Format settings, GMC : No warppoints
Format settings, Matrix : Default (H.263)
Muxing mode : Packed bitstream
Codec ID : DX50
Codec ID/Hint : DivX 5
Duration : 42mn 52s
Bit rate : 1 848 Kbps
Width : 704 pixels
Height : 400 pixels
Display aspect ratio : 16:9
Frame rate : 25.000 fps
Color space : YUV
Chroma subsampling : 4:2:0
Bit depth : 8 bits
Scan type : Progressive
Compression mode : Lossy
Bits/(Pixel*Frame) : 0.263
Stream size : 567 MiB (93%)
Writing library : DivX 6.8.5 (UTC 2009-08-20)

Audio
ID : 1
Format : MPEG Audio
Format version : Version 1
Format profile : Layer 3
Mode : Joint stereo
Mode extension : MS Stereo
Codec ID : 55
Codec ID/Hint : MP3
Duration : 42mn 52s
Bit rate mode : Constant
Bit rate : 128 Kbps
Channel(s) : 2 channels
Sampling rate : 48.0 KHz
Compression mode : Lossy
Stream size : 39.2 MiB (6%)
Alignment : Split accross interleaves
Interleave, duration : 40 ms (1.00 video frame)
Interleave, preload duration : 500 ms
Раздача ведётся путём добавления новых серий; при каждом добавлении создаётся новый торрент. Чтобы начать докачку новой серии, пользователям необходимо сделать следующее:
(1) остановить скачивание,
(2) удалить старый торрент у себя из клиента (старые серии удалять не надо),
(3) скачать новый торрент и запустить его у себя в клиенте вместо старого, при этом указать клиенту путь в старую папку куда и должно происходить скачивание новых серий.

Ваш клиент при этом должен произвести хеширование (проверку) старой папки (если не производит сам - помогите ему сделать это), и будет докачивать только те серии которых у вас ещё нет. Старые серии при этом не удаляются, а продолжают раздаваться!

Eсли вы уже удалили старые серии, то предотвратить повторную закачку старых серий можно, отжав галочку в соответствующих местах при запуске нового торрента. По возможности, желательно не удалять старые серии как можно дольше чтобы релизёр не столько продолжал раздавать старые серии, а смог сконцентрироваться на новых.

OST - Орел и Решка [Unofficial Soundtrack] (2013) MP3



   Похожие торренты   Торрент   Размер 
В этой теме нет новых непрочитанных сообщений. Орёл и решка [08x01-06] (2014) SATRip

34 | 59

3.74 ГБ

В этой теме нет новых непрочитанных сообщений. Орёл и решка [08x01-05] (2014) SATRip

290 | 326

3.08 ГБ

В этой теме нет новых непрочитанных сообщений. Орёл и решка [08x01-07] (2014) SATRip

68 | 104

4.38 ГБ

В этой теме нет новых непрочитанных сообщений. Орёл и решка [08x01-02] (2014) SATRip

251 | 119

1.21 ГБ

В этой теме нет новых непрочитанных сообщений. Орёл и решка [08x01-04] (2014) SATRip

149 | 137

2.45 ГБ

В этой теме нет новых непрочитанных сообщений. Орёл и решка [08x01-19] (2014) WEBRip

80 | 155

11.35 ГБ

В этой теме нет новых непрочитанных сообщений. Орёл и решка [08x01-25] (2014) WEBRip

206 | 273

15.15 ГБ




Вы не можете начинать темы
Вы не можете отвечать на сообщения
Вы не можете редактировать свои сообщения
Вы не можете удалять свои сообщения
Вы не можете добавлять вложения

Перейти:  
Для Мосгорсуда, Роскомнадзора и рекламодателей: mosgorsud-torrent[собачка]yandex.ru
 Вход
ppkBB3cker v.2 © 2008-2014 @ PPK
[ Time : 0.599s | 16 Queries | GZIP : On ]

Торрент трекер RUTOR.IN, Не можете зайти на rutor.org? Какой новый адрес рутор? Какое зеркало рутор? Не работает rutor.org и зеркала? Тогда наш торрент специально для вас. Rutor.in неофициальное зеркало rutor. В случае если у Вас заблокирован rutor или вдруг Вы не можете на него зайти, то Вы без труда сможете скачать бесплатно и без рекламы последние новинки кино, игр, сериалов и прочего у нас, на Rutor.in. Не нужно использовать прокси, чтобы зайти на рутор, достаточно воспользоваться нашим ресурсом. Все новые фильмы, игры, сериалы, книги и музыка за 2013 и 2014 годы через торрент бесплатно. Скачивайте фильмы в хорошем качестве, игры для пк, xbox, playstation без регистрации. У нас вы найдете новые Зарубежные сериалы и Русские сериалы 2013, 2014, 2015 годов. Оставайтесь с нами, качайте любимые фильмы, игры, сериалы, книги и музыку.
cron