img image001 image001 image001 image001 image001 image001 image001 image001 image001 image001 image001 image001 image001 image001 image001

Planets Sun Sun Sun
Статистика раздачи
Автор: Nickolas3434 | Размер: 1.51 ГБ | Добавлен: 18 фев 2014
Раздают: 32    Качают: 34
Скачать торрент
Скачать торрент
Описание торрента

СообщениеДобавлено: 18 фев 2014 

Информация о фильме
Оригинальное название: Афган. Фильм Андрея Кондрашова
Год выхода: 2014
Жанр: Документальный, научно-познавательный, эксперименты, исследование
Выпущено: Россия, Россия 1

О фильме: 25 лет назад, в феврале 1989 года, Советский Союз вывел войска из Афганистана. Закончилась последняя война огромной и еще единой страны. Что это было – провал или победа? Кто все это время оставался в тени военных баталий? Как в Афганистане столкнулись ГРУ и ЦРУ? Кто извлек прибыль из этой войны?

Продолжительность: 01:41:42
Перевод: Не требуется

Файл
Кодек: H264
Качество: HDTVRip (AVC)
Видео: MPEG-4 AVC, 1938 Кбит/с, 1024x572, 25 кадр/с
Звук: AC3, 2 ch, 192 Кбит/с

General
Unique ID : 185943305681422345267151866399096399282 (0x8BE360C708BDCE7C8403F8F0DC6165B2)
Complete name : C:Afgan.2014.HDTVRip.(AVC).ExKinoRay.mkv
Format : Matroska
Format version : Version 2
File size : 1.51 GiB
Duration : 1h 41mn
Overall bit rate : 2 132 Kbps
Movie name : Afgan from ExKinoRay
Encoded date : UTC 2014-02-17 20:54:12
Writing application : mkvmerge v4.9.1 ('Ich will') built on Jul 11 2011 23:53:15
Writing library : libebml v1.2.1 + libmatroska v1.1.1

Video
ID : 1
Format : AVC
Format/Info : Advanced Video Codec
Format profile : High@L4.1
Format settings, CABAC : Yes
Format settings, ReFrames : 8 frames
Codec ID : V_MPEG4/ISO/AVC
Duration : 1h 41mn
Bit rate : 1 938 Kbps
Width : 1 024 pixels
Height : 572 pixels
Display aspect ratio : 16:9
Frame rate mode : Constant
Frame rate : 25.000 fps
Color space : YUV
Chroma subsampling : 4:2:0
Bit depth : 8 bits
Scan type : Progressive
Bits/(Pixel*Frame) : 0.132
Stream size : 1.35 GiB (89%)
Title : Enigma-Vladislav71
Writing library : x264 core 116 r2044 392e762
Encoding settings : cabac=1 / ref=8 / deblock=1:-2:-2 / analyse=0x3:0x113 / me=umh / subme=9 / psy=1 / psy_rd=1.00:0.20 / mixed_ref=1 / me_range=32 / chroma_me=1 / trellis=2 / 8x8dct=1 / cqm=0 / deadzone=21,11 / fast_pskip=0 / chroma_qp_offset=-3 / threads=12 / sliced_threads=0 / nr=0 / decimate=0 / interlaced=0 / bluray_compat=0 / constrained_intra=0 / bframes=8 / b_pyramid=2 / b_adapt=2 / b_bias=0 / direct=3 / weightb=1 / open_gop=0 / weightp=2 / keyint=250 / keyint_min=25 / scenecut=40 / intra_refresh=0 / rc_lookahead=50 / rc=2pass / mbtree=1 / bitrate=1938 / ratetol=1.0 / qcomp=0.60 / qpmin=0 / qpmax=69 / qpstep=4 / cplxblur=20.0 / qblur=0.5 / ip_ratio=1.40 / aq=1:1.00
Default : Yes
Forced : No

Audio
ID : 2
Format : AC-3
Format/Info : Audio Coding 3
Mode extension : CM (complete main)
Format settings, Endianness : Big
Codec ID : A_AC3
Duration : 1h 41mn
Bit rate mode : Constant
Bit rate : 192 Kbps
Channel(s) : 2 channels
Channel positions : Front: L R
Sampling rate : 48.0 KHz
Bit depth : 16 bits
Compression mode : Lossy
Stream size : 140 MiB (9%)
Language : Russian
Default : Yes
Forced : No







Релиз от:

Авторы релиза:



   Похожие торренты   Торрент   Размер 
В этой теме нет новых непрочитанных сообщений. Афган. Фильм Андрея Кондрашова (2013) HDTVRip

1342 | 119

1.17 ГБ

В этой теме нет новых непрочитанных сообщений. Афган. Фильм Андрея Кондрашова (2013) SATRip

4953 | 223

1.16 ГБ

В этой теме нет новых непрочитанных сообщений. Афган. Фильм Андрея Кондрашова (2014) HDTVRip 720p

212 | 19

2.97 ГБ

В этой теме нет новых непрочитанных сообщений. Афган. Фильм Андрея Кондрашова (2014) HDTV 1080p от MediaClub

1131 | 166

4.56 ГБ

В этой теме нет новых непрочитанных сообщений. Афган. Фильм Андрея Кондрашова (2014) HDTV (1080i) от Generalfilm

345 | 120

3.63 ГБ

В этой теме нет новых непрочитанных сообщений. Афган. Фильм Андрея Кондрашова (2014) WEBRip 720p от DJFenixTrance

330 | 7

1.1 ГБ

В этой теме нет новых непрочитанных сообщений. Влюбленные. Фильм второй / Влюбленные в Афган (2004) DVDRip от Киномагия

68 | 10

1.37 ГБ




Вы не можете начинать темы
Вы не можете отвечать на сообщения
Вы не можете редактировать свои сообщения
Вы не можете удалять свои сообщения
Вы не можете добавлять вложения

Перейти:  
Для Мосгорсуда, Роскомнадзора и рекламодателей: mosgorsud-torrent[собачка]yandex.ru
 Вход
ppkBB3cker v.2 © 2008-2014 @ PPK
[ Time : 0.019s | 15 Queries | GZIP : Off ]

Торрент трекер RUTOR.IN, Не можете зайти на rutor.org? Какой новый адрес рутор? Какое зеркало рутор? Не работает rutor.org и зеркала? Тогда наш торрент специально для вас. Rutor.in неофициальное зеркало rutor. В случае если у Вас заблокирован rutor или вдруг Вы не можете на него зайти, то Вы без труда сможете скачать бесплатно и без рекламы последние новинки кино, игр, сериалов и прочего у нас, на Rutor.in. Не нужно использовать прокси, чтобы зайти на рутор, достаточно воспользоваться нашим ресурсом. Все новые фильмы, игры, сериалы, книги и музыка за 2013 и 2014 годы через торрент бесплатно. Скачивайте фильмы в хорошем качестве, игры для пк, xbox, playstation без регистрации. У нас вы найдете новые Зарубежные сериалы и Русские сериалы 2013, 2014, 2015 годов. Оставайтесь с нами, качайте любимые фильмы, игры, сериалы, книги и музыку.