img image001 image001 image001 image001 image001 image001 image001 image001 image001 image001 image001 image001 image001 image001 image001

Planets Sun Sun Sun
Статистика раздачи
Автор: Nickolas3434 | Размер: 250.54 МБ | Добавлен: 23 фев 2014
Раздают: 87    Качают: 19
Скачать торрент
Скачать торрент
Описание торрента

СообщениеДобавлено: 23 фев 2014 

Информация о фильме
Название: Дорожные войны
Год выхода: 2011
Жанр: Документальный
Режиссер: Максим Володин, Сергей Трушкин

О фильме:
Документальный сериал «Дорожные войны» рассказывает о работе сотрудников ГИБДД. Программа основана на материале, снятом видеорегистраторами патрульных машин, уличными камерами наблюдения и случайными очевидцами. Также присутствуют и собственные репортажи от съемочной группы ДТВ, выезжающей на дежурство вместе с экипажами ГИБДД.

Релиз от: Deadmauvlad
Общее
Полное имя : D:Рипы выкладка [Deadmauvlad]Рипы готовыеDoroghnie_Voiny.TVRip.EriR.22.02.2014.Deadmauvlad.avi
Формат : AVI
Формат/Информация : Audio Video Interleave
Размер файла : 251 Мбайт
Продолжительность : 22 м.
Общий поток : 1532 Кбит/сек
Название фильма : Doroghnie_Voiny.TVRip.Deadmauvlad
Режиссёр : Deadmauvlad
Жанр : Genre_16+
Программа кодирования : VirtualDubMod 1.5.10.3 | www.virtualdub-fr.org || (build 2550/release)
Формат оригинала/Имя : ТВ
Правообладатель : Goldenshara

Видео
Идентификатор : 0
Формат : MPEG-4 Visual
Профиль формата : Advanced Simple@L5
Параметр BVOP формата : 1
Параметр QPel формата : Нет
Параметр GMC формата : Без точки перехода
Параметр матрицы формата : Выборочная
Идентификатор кодека : XVID
Идентификатор кодека/Подсказка : XviD
Продолжительность : 22 м.
Битрейт : 1395 Кбит/сек
Ширина : 720 пикселей
Высота : 400 пикселей
Соотношение сторон : 16:9
Частота кадров : 23,976 кадра/сек
Цветовое пространство : YUV
Субдискретизация насыщенности : 4:2:0
Битовая глубина : 8 бит
Тип развёртки : Прогрессивная
Метод сжатия : С потерями
Бит/(Пиксели*Кадры) : 0.202
Размер потока : 228 Мбайт (91%)
Библиотека кодирования : XviD 73

Аудио
Идентификатор : 1
Формат : MPEG Audio
Версия формата : Version 1
Профиль формата : Layer 3
Идентификатор кодека : 55
Идентификатор кодека/Подсказка : MP3
Продолжительность : 22 м.
Вид битрейта : Постоянный
Битрейт : 128 Кбит/сек
Каналы : 2 канала
Частота : 48,0 КГц
Метод сжатия : С потерями
Размер потока : 20,9 Мбайт (8%)
Выравнивание : Соединение по промежуткам
Продолжительность промежутка : 42 мс. (1,00 видеокадр)
Время предзагрузки промежутка : 504 мс.
Библиотека кодирования : LAME3.99r
Настройки программы : -m s -V 4 -q 2 -lowpass 17 -b 128


Страна: Россия
Продолжительность: 00:22:51.703 (32888 frames) | Реклама (Любая) Отсутствует
Перевод: Не требуется

Файл
Кодек: XviD
Качество: TVRip
Видео: 720x400 (1.80:1), 23.976 fps, XviD build 73 ~1394 kbps avg, 0.20 bit/pixel
Звук: 48 kHz, MPEG Layer 3, 2 ch, ~128.00 kbps avg



   Похожие торренты   Торрент   Размер 
В этой теме нет новых непрочитанных сообщений. Дорожные войны [эфир от 16.05] (2014) DVB от Deadmauvlad

39 | 16

617.01 МБ

В этой теме нет новых непрочитанных сообщений. Дорожные войны [эфир от 15.05] (2014) DVB от Deadmauvlad

60 | 7

503.66 МБ

В этой теме нет новых непрочитанных сообщений. Дорожные войны [Новый сезон] [эфир от 15.10] (2014) DVB от Deadmauvlad

71 | 44

840.03 МБ

В этой теме нет новых непрочитанных сообщений. Дорожные войны [Новый сезон] [эфир от 17.09] (2014) DVB от Deadmauvlad

138 | 23

789.61 МБ

В этой теме нет новых непрочитанных сообщений. Дорожные войны [Новый сезон] [эфир от 30.09] (2014) DVB от Deadmauvlad

61 | 17

852.22 МБ

В этой теме нет новых непрочитанных сообщений. Дорожные войны [Новый сезон] [эфир от 22.08] (2014) DVB от Deadmauvlad

151 | 76

791.8 МБ

В этой теме нет новых непрочитанных сообщений. Дорожные войны [Новый сезон] [эфир от 18.09] (2014) DVB от Deadmauvlad

96 | 18

794.06 МБ




Вы не можете начинать темы
Вы не можете отвечать на сообщения
Вы не можете редактировать свои сообщения
Вы не можете удалять свои сообщения
Вы не можете добавлять вложения

Перейти:  
Для Мосгорсуда, Роскомнадзора и рекламодателей: mosgorsud-torrent[собачка]yandex.ru
 Вход
ppkBB3cker v.2 © 2008-2014 @ PPK
[ Time : 0.050s | 17 Queries | GZIP : Off ]

Торрент трекер RUTOR.IN, Не можете зайти на rutor.org? Какой новый адрес рутор? Какое зеркало рутор? Не работает rutor.org и зеркала? Тогда наш торрент специально для вас. Rutor.in неофициальное зеркало rutor. В случае если у Вас заблокирован rutor или вдруг Вы не можете на него зайти, то Вы без труда сможете скачать бесплатно и без рекламы последние новинки кино, игр, сериалов и прочего у нас, на Rutor.in. Не нужно использовать прокси, чтобы зайти на рутор, достаточно воспользоваться нашим ресурсом. Все новые фильмы, игры, сериалы, книги и музыка за 2013 и 2014 годы через торрент бесплатно. Скачивайте фильмы в хорошем качестве, игры для пк, xbox, playstation без регистрации. У нас вы найдете новые Зарубежные сериалы и Русские сериалы 2013, 2014, 2015 годов. Оставайтесь с нами, качайте любимые фильмы, игры, сериалы, книги и музыку.