img image001 image001 image001 image001 image001 image001 image001 image001 image001 image001 image001 image001 image001 image001 image001

Planets Sun Sun Sun
Статистика раздачи
Автор: Nickolas3434 | Размер: 1.06 ГБ | Добавлен: 25 фев 2014
Раздают: 95    Качают: 54
Скачать торрент
Скачать торрент
Описание торрента

СообщениеДобавлено: 25 фев 2014 

Информация о фильме
Название: Орел и решка. Шопинг
Год выхода: 2014
Жанр: Реалити-шоу, путешествия, география, познавательный
В ролях: Константин Октябрьский, Мария Ивакова

О фильме:
Что же мы покупаем в поездках?

Как привезти из путешествия магнит на холодильник вместе с холодильником и кухней. На сдачу со ста долларов.
Когда мы оказываемся за границей, нас охватывает необъяснимая жажда приобретения абсолютно ненужных вещей. Мы входим в состояние транса, и готовы за любые деньги покупать любую чушь. Помните что вы притащили из последней поездки?
А сейчас мы покажем, как это делают профессионалы.
Каждые выходные обладатели черного пояса по шопингу - Маша Ивакова и Костя Октябрьский будут посещать новый город для того, чтобы скупить в нем все самое интересное. И как всегда, в продолжение традиции, одному из ведущих достанется сто долларов, а другому – золотая карта с неограниченными возможностями. Блошиные рынки или бутики модных дизайнеров, тотальные распродажи или закрытые аукционы - какой шопинг окажется более интересным?
Все решит подброшенная монетка - орел или решка!

1 Выпуск 2014.02.16 - Нью-Йорк
2 Выпуск 2014.02.23 - Майами

Официальный сайт
Страна: Украина, Россия
Студия: TeenSpirit Studio, Пятница
Продолжительность: ~ 00:45:00
Перевод: Не требуется

Файл
Кодек: XviD / AC3
Качество: SATRip
Видео: XviD, 720x400 (16:9), 25.000 fps, 1 498 Kbps (0.208 bit/pixel)
Звук: AC-3, 48.0 KHz, 2 ch, 128 Kbps, CBR

General
Complete name : Орел и решка. Сезон №1. Шопинг. Нью-Йорк (2014.02.16).avi
Format : AVI
Format/Info : Audio Video Interleave
File size : 524 MiB
Duration : 44mn 48s
Overall bit rate : 1 636 Kbps
Writing application : VirtualDubMod 1.5.10.3 | www.virtualdub-fr.org || (build 2550/release)

Video
ID : 0
Format : MPEG-4 Visual
Format profile : Advanced Simple@L5
Format settings, BVOP : 2
Format settings, QPel : No
Format settings, GMC : No warppoints
Format settings, Matrix : Default (H.263)
Codec ID : XVID
Codec ID/Hint : XviD
Duration : 44mn 48s
Bit rate : 1 498 Kbps
Width : 720 pixels
Height : 400 pixels
Display aspect ratio : 16:9
Frame rate : 25.000 fps
Color space : YUV
Chroma subsampling : 4:2:0
Bit depth : 8 bits
Scan type : Progressive
Compression mode : Lossy
Bits/(Pixel*Frame) : 0.208
Stream size : 480 MiB (92%)
Writing library : XviD 1.2.1 (UTC 2008-12-04)

Audio
ID : 1
Format : AC-3
Format/Info : Audio Coding 3
Mode extension : CM (complete main)
Format settings, Endianness : Big
Codec ID : 2000
Duration : 44mn 48s
Bit rate mode : Constant
Bit rate : 128 Kbps
Channel(s) : 2 channels
Channel positions : Front: L R
Sampling rate : 48.0 KHz
Bit depth : 16 bits
Compression mode : Lossy
Stream size : 41.0 MiB (8%)
Alignment : Split accross interleaves
Interleave, duration : 40 ms (1.00 video frame)
Interleave, preload duration : 500 ms



   Похожие торренты   Торрент   Размер 
В этой теме нет новых непрочитанных сообщений. Орел и решка. Шопинг [01x01-06] (2014) SATRip

112 | 120

3.18 ГБ

В этой теме нет новых непрочитанных сообщений. Орел и решка. Шопинг [01x01] (2014) SATRip

214 | 47

524.25 МБ

В этой теме нет новых непрочитанных сообщений. Орел и решка. Шопинг [01x01-05] (2014) SATRip

137 | 335

2.64 ГБ

В этой теме нет новых непрочитанных сообщений. Орел и решка. Шопинг [01x01-03] (2014) SATRip

185 | 137

1.56 ГБ

В этой теме нет новых непрочитанных сообщений. Орел и решка. Шопинг [01x01-04] (2014) SATRip

195 | 166

2.09 ГБ

В этой теме нет новых непрочитанных сообщений. Орел и решка. Шопинг [01x01-11] (2014) WEB-DLRip

27 | 62

6.46 ГБ

В этой теме нет новых непрочитанных сообщений. Орел и решка. Шопинг [01x01-23] (2014) WEB-DLRip

75 | 351

13.38 ГБ




Вы не можете начинать темы
Вы не можете отвечать на сообщения
Вы не можете редактировать свои сообщения
Вы не можете удалять свои сообщения
Вы не можете добавлять вложения

Перейти:  
Для Мосгорсуда, Роскомнадзора и рекламодателей: mosgorsud-torrent[собачка]yandex.ru
 Вход
ppkBB3cker v.2 © 2008-2014 @ PPK
[ Time : 0.038s | 15 Queries | GZIP : On ]

Торрент трекер RUTOR.IN, Не можете зайти на rutor.org? Какой новый адрес рутор? Какое зеркало рутор? Не работает rutor.org и зеркала? Тогда наш торрент специально для вас. Rutor.in неофициальное зеркало rutor. В случае если у Вас заблокирован rutor или вдруг Вы не можете на него зайти, то Вы без труда сможете скачать бесплатно и без рекламы последние новинки кино, игр, сериалов и прочего у нас, на Rutor.in. Не нужно использовать прокси, чтобы зайти на рутор, достаточно воспользоваться нашим ресурсом. Все новые фильмы, игры, сериалы, книги и музыка за 2013 и 2014 годы через торрент бесплатно. Скачивайте фильмы в хорошем качестве, игры для пк, xbox, playstation без регистрации. У нас вы найдете новые Зарубежные сериалы и Русские сериалы 2013, 2014, 2015 годов. Оставайтесь с нами, качайте любимые фильмы, игры, сериалы, книги и музыку.