img image001 image001 image001 image001 image001 image001 image001 image001 image001 image001 image001 image001 image001 image001 image001

Planets Sun Sun Sun
Статистика раздачи
Автор: Nickolas3434 | Размер: 50.46 ГБ | Добавлен: 01 мар 2014
Раздают: 7    Качают: 20
Скачать торрент
Скачать торрент
Описание торрента

СообщениеДобавлено: 01 мар 2014 

Фартук победы (МастерШеф Австралия) / MasterChef Australia

Страна: Австралия
Тематика: кулинария
Тип раздаваемого материала: реалити-шоу
Продолжительность: от 25мин. до 1ч. 10мин на эпизод
Год выпуска: 2009

Язык: Русский
Перевод: Профессиональный (двухголосый)

Описание: Амбиции и сумасшедший драйв, скорости и температуры, металл и огонь, вызов себе и окружающим... Самое большое кулинарное состязание в истории!
Напряженный кулинарный триллер, в котором развернется борьба ради фартука... фартука Супер-Шеф-повара Австралии! После отборочного тура 50 лучших австралийских кулинаров-любителей разного возраста и разных профессий отправятся в Сидней, где пройдут испытания — от простого умения пользоваться ножом до запутанных и сложных кулинарных заданий. И только 20 выйдут в финал, где развернется настоящая битва за победу. Фартук и сто тысяч долларов достанутся только одному!

Доп. информация: Непережатый поток с IPTV трансляции.
Небольшой отсутствующий кусочек из первого эпизода выложен отдельно. В пятнадцатом эпизоде после 35-ой минуты картинка временами сыплется(были проблемы с трансляцией).
П.с. 15.05.2013 Пятнадцатый эпизод в нормальном качестве - http://yadi.sk/d/2wjwBYkm4qYDv
Качество: IPTVRip
Формат: MPG
Видео кодек: MPEG2
Аудио кодек: MP2
Видео: MPEG2 Video, 544x576(576i) (4:3), 25fps, ~ 3 100 Kbps
Аудио: MPEG Audio, 48000Hz, stereo, 192kbps
General
Complete name : E:Серия 01.mpg
Format : MPEG-PS
File size : 1.02 GiB
Duration : 43mn 18s
Overall bit rate mode : Variable
Overall bit rate : 3 378 Kbps

Video
ID : 224 (0xE0)
Format : MPEG Video
Format version : Version 2
Format profile : Main@Main
Format settings, BVOP : Yes
Format settings, Matrix : Custom
Format settings, GOP : M=3, N=18
Duration : 43mn 18s
Bit rate mode : Variable
Bit rate : 3 119 Kbps
Maximum bit rate : 15.0 Mbps
Width : 544 pixels
Height : 576 pixels
Display aspect ratio : 4:3
Frame rate : 25.000 fps
Standard : PAL
Color space : YUV
Chroma subsampling : 4:2:0
Bit depth : 8 bits
Scan type : Interlaced
Scan order : Top Field First
Compression mode : Lossy
Bits/(Pixel*Frame) : 0.398
Stream size : 966 MiB (92%)
Matrix coefficients : BT.601

Audio
ID : 192 (0xC0)
Format : MPEG Audio
Format version : Version 1
Format profile : Layer 2
Duration : 43mn 18s
Bit rate mode : Constant
Bit rate : 192 Kbps
Channel(s) : 2 channels
Sampling rate : 48.0 KHz
Compression mode : Lossy
Stream size : 59.5 MiB (6%)





   Похожие торренты   Торрент   Размер 
В этой теме нет новых непрочитанных сообщений. Фартук победы / МастерШеф Австралия / MasterChef Australia [S01] (2009) IPTVRip от Files-x

24 | 6

33.58 ГБ

В этой теме нет новых непрочитанных сообщений. Кулинария. Лучший повар Америки / MasterChef US 3 [S03] (2012) IPTVRip

55 | 72

17.46 ГБ

В этой теме нет новых непрочитанных сообщений. Кулинария. Лучший повар Америки / MasterChef US 2 [S02] (2011) IPTVRip

249 | 26

6.59 ГБ

В этой теме нет новых непрочитанных сообщений. Кулинария. Лучший повар Америки / MasterChef US 1 [01-04] (2010) IPTVRip

22 | 6

1.95 ГБ

В этой теме нет новых непрочитанных сообщений. МастерШеф: дети / MasterChef: junior [04x01-12 из 12] (2016) SATRip от Generalfilm

7 | 0

5.5 ГБ

В этой теме нет новых непрочитанных сообщений. Кулинария. Лучший повар Америки / MasterChef US 4 [01-05] (2013) HDTVRip 720р

13 | 8

7.52 ГБ

В этой теме нет новых непрочитанных сообщений. Кулинария. Лучший повар Америки / MasterChef US 4 [01-25] (2013) HDTVRip 720р

225 | 70

37.97 ГБ




Вы не можете начинать темы
Вы не можете отвечать на сообщения
Вы не можете редактировать свои сообщения
Вы не можете удалять свои сообщения
Вы не можете добавлять вложения

Перейти:  
Для Мосгорсуда, Роскомнадзора и рекламодателей: mosgorsud-torrent[собачка]yandex.ru
 Вход
ppkBB3cker v.2 © 2008-2014 @ PPK
[ Time : 0.027s | 14 Queries | GZIP : Off ]

Торрент трекер RUTOR.IN, Не можете зайти на rutor.org? Какой новый адрес рутор? Какое зеркало рутор? Не работает rutor.org и зеркала? Тогда наш торрент специально для вас. Rutor.in неофициальное зеркало rutor. В случае если у Вас заблокирован rutor или вдруг Вы не можете на него зайти, то Вы без труда сможете скачать бесплатно и без рекламы последние новинки кино, игр, сериалов и прочего у нас, на Rutor.in. Не нужно использовать прокси, чтобы зайти на рутор, достаточно воспользоваться нашим ресурсом. Все новые фильмы, игры, сериалы, книги и музыка за 2013 и 2014 годы через торрент бесплатно. Скачивайте фильмы в хорошем качестве, игры для пк, xbox, playstation без регистрации. У нас вы найдете новые Зарубежные сериалы и Русские сериалы 2013, 2014, 2015 годов. Оставайтесь с нами, качайте любимые фильмы, игры, сериалы, книги и музыку.