img image001 image001 image001 image001 image001 image001 image001 image001 image001 image001 image001 image001 image001 image001 image001 image001

Planets Sun Sun Sun
Статистика раздачи
Автор: Nickolas3434 | Размер: 17.46 ГБ | Добавлен: 01 мар 2014
Раздают: 55    Качают: 72
Скачать торрент
Скачать торрент
Описание торрента

СообщениеДобавлено: 01 мар 2014 

Лучший повар Америки (МастерШеф США) 3 / MasterChef US 3

Страна: США
Тип раздаваемого материала: Реалити-шоу
Продолжительность: ~ 40 мин на эпизод
Год выпуска: 2012

Язык: Русский
Перевод: Профессиональный (двухголосый)

Описание: Повар-профессионал Гордон Рамзи ищет лучших кулинаров-любителей Америки. Посмотрите, как участники конкурса демонстрируют свою оригинальность, творческие подходы и страсть к приготовлению пищи. Все они полны надежд выиграть 250 тысяч долларов, издать свою кулинарную книгу и получить почетное звание "Лучшего шеф-повара Америки 2012".

Доп. информация: Непережатый поток с IPTV трансляции.

Качество: IPTVRip
Формат: MPG
Видео кодек: MPEG2
Аудио кодек: MP2
Видео: MPEG2 Video, 704x576 (4:3, 16-ый эпизод 16:9), 25fps, ~ 2 900 Kbps
Аудио: MPEG Audio, 48000Hz, stereo, 128kbps
General
Complete name : E:SerialЛучший повар Америки 3Эпизод 01.mpg
Format : MPEG-PS
File size : 876 MiB
Duration : 39mn 31s
Overall bit rate mode : Variable
Overall bit rate : 3 100 Kbps

Video
ID : 224 (0xE0)
Format : MPEG Video
Format version : Version 2
Format profile : Main@Main
Format settings, BVOP : Yes
Format settings, Matrix : Custom
Format settings, GOP : M=3, N=15
Duration : 39mn 31s
Bit rate mode : Variable
Bit rate : 2 910 Kbps
Maximum bit rate : 4 000 Kbps
Width : 704 pixels
Height : 576 pixels
Display aspect ratio : 4:3
Frame rate : 25.000 fps
Standard : PAL
Color space : YUV
Chroma subsampling : 4:2:0
Bit depth : 8 bits
Scan type : Interlaced
Scan order : Top Field First
Compression mode : Lossy
Bits/(Pixel*Frame) : 0.287
Stream size : 823 MiB (94%)
Matrix coefficients : BT.601

Audio
ID : 192 (0xC0)
Format : MPEG Audio
Format version : Version 1
Format profile : Layer 2
Mode : Joint stereo
Duration : 39mn 31s
Bit rate mode : Constant
Bit rate : 128 Kbps
Channel(s) : 2 channels
Sampling rate : 48.0 KHz
Compression mode : Lossy
Stream size : 36.2 MiB (4%)





   Похожие торренты   Торрент   Размер 
В этой теме нет новых непрочитанных сообщений. Кулинария. Лучший повар Америки / MasterChef US 1 [01-04] (2010) IPTVRip

22 | 6

1.95 ГБ

В этой теме нет новых непрочитанных сообщений. Кулинария. Лучший повар Америки / MasterChef US 2 [S02] (2011) IPTVRip

249 | 26

6.59 ГБ

В этой теме нет новых непрочитанных сообщений. Кулинария. Лучший повар Америки / MasterChef US 4 [01-25] (2013) HDTVRip 720р

225 | 70

37.97 ГБ

В этой теме нет новых непрочитанных сообщений. Кулинария. Лучший повар Америки / MasterChef US 4 [01-05] (2013) HDTVRip 720р

13 | 8

7.52 ГБ

В этой теме нет новых непрочитанных сообщений. Кулинария. Лучший повар Америки / MasterChef US 4 [01-04] (2013) HDTVRip 720р

3 | 44

5.89 ГБ

В этой теме нет новых непрочитанных сообщений. Кулинария. Лучший повар Америки / MasterChef [05х01 из 19] (2014) HDTVRip от GeneralFilm | P2

20 | 8

1.43 ГБ

В этой теме нет новых непрочитанных сообщений. Кулинария. Лучший повар Америки / MasterChef [S06] (2015) HDTVRip от GeneralFilm | ViruseProject

124 | 44

10.21 ГБ




Вы не можете начинать темы
Вы не можете отвечать на сообщения
Вы не можете редактировать свои сообщения
Вы не можете удалять свои сообщения
Вы не можете добавлять вложения

Перейти:  
 Вход
ppkBB3cker v.2 © 2008-2014 @ PPK
[ Time : 0.113s | 15 Queries | GZIP : Off ]

cron