img image001 image001 image001 image001 image001 image001 image001 image001 image001 image001 image001 image001 image001 image001 image001

Planets Sun Sun Sun
Статистика раздачи
Автор: Nickolas3434 | Размер: 5.89 ГБ | Добавлен: 01 мар 2014
Раздают: 3    Качают: 44
Скачать торрент
Скачать торрент
Описание торрента

СообщениеДобавлено: 01 мар 2014 

Лучший повар Америки 4 / MasterChef US 4 [2013] HDTVrip(720р) (01- 04 из 25)

Страна: США
Тематика: Реалити шоу
Тип раздаваемого материала: Реалити шоу
Продолжительность: серия ~ 00:40:00
Год выпуска: 2013

Язык: Русский + Английский
Перевод: Профессиональный (двухголосый)

Язык субтитров: нет
Описание: Повар-профессионал Гордон Рамзи ищет лучших кулинаров-любителей Америки. Посмотрите, как участники конкурса демонстрируют свою оригинальность, творческие подходы и страсть к приготовлению пищи. Все они полны надежд выиграть гран-при, который изменит их жизнь, и получить почетное звание следующего "Лучшего шеф-повара Америки".

Доп. информация: К рипу найденному в сети прикручена русская звуковая дорожка с канала TLC.
Общее

Формат : Matroska
Версия формата : Version 4 / Version 2
Размер файла : 1,46 Гбайт
Продолжительность : 41 м.
Общий поток : 5040 Кбит/сек
Дата кодирования : UTC 2014-02-06 21:50:17
Программа кодирования : mkvmerge v6.7.0 ('Back to the Ground') 64bit built on Jan 8 2014 15:10:52
Библиотека кодирования : libebml v1.3.0 + libmatroska v1.4.1

Видео
Идентификатор : 1
Формат : AVC
Формат/Информация : Advanced Video Codec
Профиль формата : High@L4.1
Параметр CABAC формата : Да
Параметр ReFrames формата : 8 кадров
Идентификатор кодека : V_MPEG4/ISO/AVC
Продолжительность : 41 м.
Битрейт : 4300 Кбит/сек
Ширина : 1280 пикселей
Высота : 720 пикселей
Соотношение сторон : 16:9
Режим частоты кадров : Постоянный
Частота кадров : 23,976 кадра/сек
Цветовое пространство : YUV
Субдискретизация насыщенности : 4:2:0
Битовая глубина : 8 бит
Тип развёртки : Прогрессивная
Бит/(Пиксели*Кадры) : 0.195
Размер потока : 1,25 Гбайт (85%)
Библиотека кодирования : x264 core 132 r2310 76a5c3a
Настройки программы : cabac=1 / ref=8 / deblock=1:2:2 / analyse=0x3:0x113 / me=umh / subme=9 / psy=1 / psy_rd=1.00:0.00 / mixed_ref=1 / me_range=24 / chroma_me=1 / trellis=1 / 8x8dct=1 / cqm=0 / deadzone=21,11 / fast_pskip=0 / chroma_qp_offset=-2 / threads=18 / lookahead_threads=2 / sliced_threads=0 / nr=0 / decimate=1 / interlaced=0 / bluray_compat=0 / constrained_intra=0 / bframes=5 / b_pyramid=2 / b_adapt=2 / b_bias=0 / direct=3 / weightb=1 / open_gop=0 / weightp=2 / keyint=250 / keyint_min=23 / scenecut=40 / intra_refresh=0 / rc_lookahead=50 / rc=crf / mbtree=1 / crf=20.0 / qcomp=0.60 / qpmin=0 / qpmax=69 / qpstep=4 / ip_ratio=1.40 / aq=1:1.00
Язык : English
Default : Нет
Forced : Нет

Аудио #1
Идентификатор : 2
Формат : AC-3
Формат/Информация : Audio Coding 3
Расширение режима : CM (complete main)
Параметр Endianness формата : Big
Идентификатор кодека : A_AC3
Продолжительность : 41 м.
Вид битрейта : Постоянный
Битрейт : 192 Кбит/сек
Каналы : 2 канала
Расположение каналов : Front: L R
Частота : 48,0 КГц
Битовая глубина : 16 бит
Метод сжатия : С потерями
Размер потока : 56,9 Мбайт (4%)
Язык : Russian
Default : Нет
Forced : Нет

Аудио #2
Идентификатор : 3
Формат : AC-3
Формат/Информация : Audio Coding 3
Расширение режима : CM (complete main)
Параметр Endianness формата : Big
Идентификатор кодека : A_AC3
Продолжительность : 41 м.
Вид битрейта : Постоянный
Битрейт : 448 Кбит/сек
Каналы : 6 каналов
Расположение каналов : Front: L C R, Side: L R, LFE
Частота : 48,0 КГц
Битовая глубина : 16 бит
Метод сжатия : С потерями
Размер потока : 133 Мбайт (9%)
Язык : English
Default : Да
Forced : Нет
Качество: HDTVRip
Формат: MKV
Видео кодек: H.264
Аудио кодек: AC3
Видео: 1280 x 720 23.976 fps 4300 Кбит/сек
Аудио:русский / AC3 / 2.0 / 48 kHz / 192 kbps / 16 bit
Аудио 2:английский / AC3 / 5.1 / 48 kHz / 448 kbps / 16 bit
Добавлен выпуск 4 ! Перекачайте торрент!







   Похожие торренты   Торрент   Размер 
В этой теме нет новых непрочитанных сообщений. Кулинария. Лучший повар Америки / MasterChef US 4 [01-25] (2013) HDTVRip 720р

225 | 70

37.97 ГБ

В этой теме нет новых непрочитанных сообщений. Кулинария. Лучший повар Америки / MasterChef US 4 [01-05] (2013) HDTVRip 720р

13 | 8

7.52 ГБ

В этой теме нет новых непрочитанных сообщений. Кулинария. Лучший повар Америки / MasterChef [05х01 из 19] (2014) HDTVRip от GeneralFilm | P2

20 | 8

1.43 ГБ

В этой теме нет новых непрочитанных сообщений. Кулинария. Лучший повар Америки / MasterChef [S06] (2015) HDTVRip от GeneralFilm | ViruseProject

132 | 44

10.21 ГБ

В этой теме нет новых непрочитанных сообщений. Кулинария. Лучший повар Америки / MasterChef [05х01-08 из 19] (2014) HDTVRip от GeneralFilm | P2

13 | 177

3.8 ГБ

В этой теме нет новых непрочитанных сообщений. Кулинария. Лучший повар Америки / MasterChef [05х01 из 19] (2014) HDTVRip от GeneralFilm | P2

26 | 208

977.32 МБ

В этой теме нет новых непрочитанных сообщений. Кулинария. Лучший повар Америки / MasterChef [05х01 из 19] (2014) HDTVRip от GeneralFilm | P2

28 | 2

487.71 МБ




Вы не можете начинать темы
Вы не можете отвечать на сообщения
Вы не можете редактировать свои сообщения
Вы не можете удалять свои сообщения
Вы не можете добавлять вложения

Перейти:  
Для Мосгорсуда, Роскомнадзора и рекламодателей: mosgorsud-torrent[собачка]yandex.ru
 Вход
ppkBB3cker v.2 © 2008-2014 @ PPK
[ Time : 0.053s | 14 Queries | GZIP : Off ]

Торрент трекер RUTOR.IN, Не можете зайти на rutor.org? Какой новый адрес рутор? Какое зеркало рутор? Не работает rutor.org и зеркала? Тогда наш торрент специально для вас. Rutor.in неофициальное зеркало rutor. В случае если у Вас заблокирован rutor или вдруг Вы не можете на него зайти, то Вы без труда сможете скачать бесплатно и без рекламы последние новинки кино, игр, сериалов и прочего у нас, на Rutor.in. Не нужно использовать прокси, чтобы зайти на рутор, достаточно воспользоваться нашим ресурсом. Все новые фильмы, игры, сериалы, книги и музыка за 2013 и 2014 годы через торрент бесплатно. Скачивайте фильмы в хорошем качестве, игры для пк, xbox, playstation без регистрации. У нас вы найдете новые Зарубежные сериалы и Русские сериалы 2013, 2014, 2015 годов. Оставайтесь с нами, качайте любимые фильмы, игры, сериалы, книги и музыку.