img image001 image001 image001 image001 image001 image001 image001 image001 image001 image001 image001 image001 image001 image001 image001

Planets Sun Sun Sun
Статистика раздачи
Автор: Nickolas3434 | Размер: 5 ГБ | Добавлен: 04 мар 2014
Раздают: 408    Качают: 246
Скачать торрент
Скачать торрент
Описание торрента

СообщениеДобавлено: 04 мар 2014 

86-я ежегодная премия "Оскар" / The 86th Annual Academy Awards.
The Oscars 2014 & Red Carpet.





Год выпуска: 2014
Страна: США
Жанр: Тв-шоу, церемония награждения
Продолжительность: 00:58:07 + 02:55:40
Перевод: Отсутствует
Описание: "Оскар" - главная кинопремия США и самая престижная кинонаграда мира. Вручается ежегодно Американской академией киноискусства. В отличие от большинства кинофестивалей, "Оскары" вручаются по результатам всеобщего голосования членов Академии, а не по выбору жюри. Торжественная церемония вручения транслируется в десятках стран в прямом эфире. Первое вручение премии "Оскар" состоялось в 1929 году. До 1976 года прямая трансляция церемонии проводилась каналом NBC, теперь же права принадлежат ABC.

86-я церемония вручения премий Оскар состоится 2 марта 2014 года. Перенос церемонии с последнего воскресенья февраля на первое воскресенье марта связан с проведением зимних Олимпийских игр в Сочи. Подача заявок продлится до 2 декабря 2013 года. Голосование, которое определит список номинантов, начнется 27 декабря 2013 года и завершится 8 января 2014 года. Претенденты будут представлены 16 января 2014 года.
14 февраля стартует финальный этап голосования Киноакадемиков, который закончится 25 февраля 2014 года.
качество: HDTV
формат: MKV
Видео: 1280x720, H264, 29.970 FPS @ 2641Kbps
Аудио: AC-3, 6ch, 384 Kbps
Полное имя : The 86th Annual Academy Awards 2014-2HDThe.86th.Annual.Academy.Awards.2014.720p.HDTV.x264-2HDthe.86th.annual.academy.awards.2014.720p.hdtv.x264-2hd.mkv
Формат : Matroska
Версия формата : Version 4 / Version 2
Размер файла : 3.24 GiB
Продолжительность : 2h 55mn
Общий поток : 2 641 Kbps
Дата кодирования : UTC 2014-03-03 05:30:37
Программа кодирования : mkvmerge v6.2.0 ('Promised Land') built on Apr 28 2013 08:01:15
Библиотека кодирования : libebml v1.3.0 + libmatroska v1.4.0

Video
Идентификатор : 1
Формат : AVC
Формат/Информация : Advanced Video Codec
Профиль формата : High@L4.1
Параметр CABAC формата : Yes
Параметр ReFrames формата : 5 frames
Идентификатор кодека : V_MPEG4/ISO/AVC
Продолжительность : 2h 55mn
Битрейт : 2 204 Kbps
Ширина : 1 280 pixels
Высота : 720 pixels
Соотношение сторон : 16:9
Режим частоты кадров : Constant
Частота кадров : 29.970 fps
Цветовое пространство : YUV
Субдискретизация насыщенности : 4:2:0
Битовая глубина : 8 bits
Тип развёртки : Progressive
Бит/(Пиксели*Кадры) : 0.080
Размер потока : 2.70 GiB (83%)
Библиотека кодирования : x264 core 142 r2389 956c8d8
Настройки программы : cabac=1 / ref=5 / deblock=1:0:0 / analyse=0x3:0x113 / me=umh / subme=8 / psy=1 / psy_rd=1.00:0.00 / mixed_ref=1 / me_range=16 / chroma_me=1 / trellis=1 / 8x8dct=1 / cqm=0 / deadzone=21,11 / fast_pskip=1 / chroma_qp_offset=-2 / threads=12 / lookahead_threads=2 / sliced_threads=0 / nr=0 / decimate=1 / interlaced=0 / bluray_compat=0 / constrained_intra=0 / bframes=3 / b_pyramid=2 / b_adapt=2 / b_bias=0 / direct=3 / weightb=1 / open_gop=0 / weightp=2 / keyint=250 / keyint_min=25 / scenecut=40 / intra_refresh=0 / rc_lookahead=50 / rc=crf / mbtree=1 / crf=22.0 / qcomp=0.60 / qpmin=0 / qpmax=69 / qpstep=4 / ip_ratio=1.40 / aq=1:1.00
Язык : English
Default : Yes
Forced : No
Коэффициенты матрицы : BT.709

Audio
Идентификатор : 2
Формат : AC-3
Формат/Информация : Audio Coding 3
Расширение режима : CM (complete main)
Параметр Endianness формата : Big
Идентификатор кодека : A_AC3
Продолжительность : 2h 55mn
Вид битрейта : Constant
Битрейт : 384 Kbps
Каналы : 6 channels
Расположение каналов : Front: L C R, Side: L R, LFE
Частота : 48.0 KHz
Битовая глубина : 16 bits
Метод сжатия : Lossy
Размер потока : 482 MiB (15%)
Default : Yes
Forced : No

Полное имя : E:DownLoad$ВСЁ)))#3Концерты,клипы,шоу в HDThe 86th Annual Academy Awards 2014-2HDOscars.Red.Carpet.Live.2014.720p.HDTV.x264-2HDoscars.red.carpet.live.2014.720p.hdtv.x264-2hd.mkv
Формат : Matroska
Версия формата : Version 4 / Version 2
Размер файла : 1.76 GiB
Продолжительность : 1h 2mn
Общий поток : 4 025 Kbps
Дата кодирования : UTC 2014-03-03 02:02:54
Программа кодирования : mkvmerge v6.2.0 ('Promised Land') built on Apr 28 2013 08:01:15
Библиотека кодирования : libebml v1.3.0 + libmatroska v1.4.0

Video
Идентификатор : 1
Формат : AVC
Формат/Информация : Advanced Video Codec
Профиль формата : High@L4.1
Параметр CABAC формата : Yes
Параметр ReFrames формата : 5 frames
Идентификатор кодека : V_MPEG4/ISO/AVC
Продолжительность : 1h 2mn
Битрейт : 3 561 Kbps
Ширина : 1 280 pixels
Высота : 720 pixels
Соотношение сторон : 16:9
Режим частоты кадров : Constant
Частота кадров : 29.970 fps
Цветовое пространство : YUV
Субдискретизация насыщенности : 4:2:0
Битовая глубина : 8 bits
Тип развёртки : Progressive
Бит/(Пиксели*Кадры) : 0.129
Размер потока : 1.56 GiB (88%)
Библиотека кодирования : x264 core 142 r2389 956c8d8
Настройки программы : cabac=1 / ref=5 / deblock=1:0:0 / analyse=0x3:0x113 / me=umh / subme=8 / psy=1 / psy_rd=1.00:0.00 / mixed_ref=1 / me_range=16 / chroma_me=1 / trellis=1 / 8x8dct=1 / cqm=0 / deadzone=21,11 / fast_pskip=1 / chroma_qp_offset=-2 / threads=12 / lookahead_threads=2 / sliced_threads=0 / nr=0 / decimate=1 / interlaced=0 / bluray_compat=0 / constrained_intra=0 / bframes=3 / b_pyramid=2 / b_adapt=2 / b_bias=0 / direct=3 / weightb=1 / open_gop=0 / weightp=2 / keyint=250 / keyint_min=25 / scenecut=40 / intra_refresh=0 / rc_lookahead=50 / rc=crf / mbtree=1 / crf=22.0 / qcomp=0.60 / qpmin=0 / qpmax=69 / qpstep=4 / ip_ratio=1.40 / aq=1:1.00
Язык : English
Default : Yes
Forced : No
Коэффициенты матрицы : BT.709

Audio
Идентификатор : 2
Формат : AC-3
Формат/Информация : Audio Coding 3
Расширение режима : CM (complete main)
Параметр Endianness формата : Big
Идентификатор кодека : A_AC3
Продолжительность : 1h 2mn
Вид битрейта : Constant
Битрейт : 384 Kbps
Каналы : 6 channels
Расположение каналов : Front: L C R, Side: L R, LFE
Частота : 48.0 KHz
Битовая глубина : 16 bits
Метод сжатия : Lossy
Размер потока : 172 MiB (10%)
Default : Yes
Forced : No


"Скриншоты"






   Похожие торренты   Торрент   Размер 
В этой теме нет новых непрочитанных сообщений. 86-я церемония вручения премии «Оскар» 2014 / The 86th Annual Academy Awards. «Красная дорожка» + «Оскар» [FEED] (2014) HDTV 720p | 50 fps

32 | 43

20.31 ГБ

В этой теме нет новых непрочитанных сообщений. 86-я церемония вручения премии «Оскар» 2014 «Красная дорожка» / The 86th Annual Academy Awards. Red Carpet (2014) HDTV 720p

60 | 9

1.89 ГБ

В этой теме нет новых непрочитанных сообщений. 86-я церемония вручения премии «Оскар» 2014 / The 86th Annual Academy Awards HDTV 720p | Матвеев

23 | 17

5.74 ГБ

В этой теме нет новых непрочитанных сообщений. 86-я церемония вручения премии «Оскар» / The 86th Annual Academy Awards (2014) HDTV 1080i

208 | 95

5.83 ГБ

В этой теме нет новых непрочитанных сообщений. 86-я церемония вручения премии «Оскар» / The 86th Annual Academy Awards (2014) SATRip | Телеверсия

520 | 86

1.22 ГБ

В этой теме нет новых непрочитанных сообщений. 84 церемония вручения премии «Оскар» / The 84th Annual Academy Awards (2012) HDTV 720p

0 | 2

2.91 ГБ

В этой теме нет новых непрочитанных сообщений. 86-я Церемония вручения наград Оскар 2014 / The 86th Annual Academy Awards 2014 (2014) HDTVRip / АП (Либергал) – MediaClub

65 | 18

1.45 ГБ




Вы не можете начинать темы
Вы не можете отвечать на сообщения
Вы не можете редактировать свои сообщения
Вы не можете удалять свои сообщения
Вы не можете добавлять вложения

Перейти:  
Для Мосгорсуда, Роскомнадзора и рекламодателей: mosgorsud-torrent[собачка]yandex.ru
 Вход
ppkBB3cker v.2 © 2008-2014 @ PPK
[ Time : 0.040s | 15 Queries | GZIP : Off ]

Торрент трекер RUTOR.IN, Не можете зайти на rutor.org? Какой новый адрес рутор? Какое зеркало рутор? Не работает rutor.org и зеркала? Тогда наш торрент специально для вас. Rutor.in неофициальное зеркало rutor. В случае если у Вас заблокирован rutor или вдруг Вы не можете на него зайти, то Вы без труда сможете скачать бесплатно и без рекламы последние новинки кино, игр, сериалов и прочего у нас, на Rutor.in. Не нужно использовать прокси, чтобы зайти на рутор, достаточно воспользоваться нашим ресурсом. Все новые фильмы, игры, сериалы, книги и музыка за 2013 и 2014 годы через торрент бесплатно. Скачивайте фильмы в хорошем качестве, игры для пк, xbox, playstation без регистрации. У нас вы найдете новые Зарубежные сериалы и Русские сериалы 2013, 2014, 2015 годов. Оставайтесь с нами, качайте любимые фильмы, игры, сериалы, книги и музыку.