img image001 image001 image001 image001 image001 image001 image001 image001 image001 image001 image001 image001 image001 image001 image001

Planets Sun Sun Sun
Статистика раздачи
Автор: Nickolas3434 | Размер: 20.53 ГБ | Добавлен: 10 мар 2014
Раздают: 14    Качают: 62
Скачать торрент
Скачать торрент
Описание торрента

СообщениеДобавлено: 10 мар 2014 

Информация о фильме
Название: Х-Фактор США
Оригинальное название: X Factor US
Год выхода: 2013
Жанр: вокальное шоу
Режиссер: Марио Лопез
В ролях: Саймон Коуэлл, Дэми Ловато, Паулина Рубио, Келли Роуленд

О фильме:
The X Factor USA "3 Сезон" - американское музыкальное телешоу, которое на экранах стартовало 11 сентября 2013 года на телеканале FOX, в шоу ищут новых талантов. Победитель получит контракт с музыкальной компанией Epic Records и умопомрачительный приз в 5 миллионов долларов. В третьем сезоне обновился состав судей, к Саймону и Деми присоединились Паулина Рубио (Paulina Rubio) и обворожительная Келли Роуленд (Kelly Rowland).

Эпизод 01 - Отборочные
Эпизод 02 - Отборочные
Эпизод 03 - Отборочные
Эпизод 04 - Отборочные
Эпизод 05 - Отборочные
Эпизод 06 - Отборочные. Первый отбор по категориям. Судьи узнают свои категории
Эпизод 07 - Обновленный тренировочный лагерь. Соревнование "Четыре Стула". Часть 1
Эпизод 08 - Обновленный тренировочный лагерь. Соревнование "Четыре Стула". Часть 2
Эпизод 09 - Обновленный тренировочный лагерь. Соревнование "Четыре Стула". Часть 3
Эпизод 10 - Обновленный тренировочный лагерь. Соревнование "Четыре Стула". Часть 4
Эпизод 11 - Живое шоу 1. Выбор финалистов. 12 лучших.
Эпизод 12 - Знакомство с 12-тью финалистами
Эпизод 13 - Живое шоу 2. "Motown Night"
Эпизод 14 - Живое шоу 3. Все участники выступают со своими подготовленными для борьбы за жизнь песнями.
Эпизод 15 - Живое шоу 3. Результаты. Живое шоу 4. "Вечер 80-тых".
Эпизод 16 - Живое шоу 4. Результаты.
Эпизод 17 - Живое шоу 5. Британское нашествие
Эпизод 18 - Живое шоу 5. Результаты
Эпизод 19 - Живое шоу 6. Вечер в сопровождении оркестра
Эпизод 20 - Живое шоу 6. Результаты
Эпизод 21 - Живое шоу 7. Divas; Unplugged Songs
Эпизод 22 - Живое шоу 7. Результаты
Эпизод 23 - Живое шоу 8. Выбор публики; Песни, которые приведут к финалу
Эпизод 24 - Живое шоу 8. Результаты
Эпизод 25 - Живое шоу 9. Песня к победе; дуэт со звездой; любимое выступление


General
Complete name : C:UsersАдминистраторDesktopРаздачиX Factor USA Season 3 FoxLifethe.x.factor.us.s03e01.hdtvrip.rus.eng.fox-life.avi
Format : AVI
Format/Info : Audio Video Interleave
File size : 549 MiB
Duration : 41mn 33s
Overall bit rate : 1 846 Kbps
Writing application : VirtualDubMod 1.5.10.3 (build 2550/release)
Writing library : VirtualDubMod build 2550/release

Video
ID : 0
Format : MPEG-4 Visual
Format profile : Advanced Simple@L5
Format settings, BVOP : 2
Format settings, QPel : No
Format settings, GMC : No warppoints
Format settings, Matrix : Default (H.263)
Codec ID : XVID
Codec ID/Hint : XviD
Duration : 41mn 33s
Bit rate : 1 572 Kbps
Width : 720 pixels
Height : 400 pixels
Display aspect ratio : 16:9
Frame rate : 29.970 fps
Color space : YUV
Chroma subsampling : 4:2:0
Bit depth : 8 bits
Scan type : Progressive
Compression mode : Lossy
Bits/(Pixel*Frame) : 0.182
Stream size : 467 MiB (85%)
Writing library : XviD 64

Audio #1
ID : 1
Format : MPEG Audio
Format version : Version 1
Format profile : Layer 3
Mode : Joint stereo
Mode extension : MS Stereo
Codec ID : 55
Codec ID/Hint : MP3
Duration : 41mn 33s
Bit rate mode : Constant
Bit rate : 128 Kbps
Channel(s) : 2 channels
Sampling rate : 48.0 KHz
Compression mode : Lossy
Stream size : 38.0 MiB (7%)
Alignment : Aligned on interleaves
Interleave, duration : 33 ms (1.00 video frame)
Interleave, preload duration : 504 ms
Writing library : LAME3.99r
Encoding settings : -m j -V 4 -q 3 -lowpass 17 -b 128

Audio #2
ID : 2
Format : MPEG Audio
Format version : Version 1
Format profile : Layer 3
Mode : Joint stereo
Mode extension : MS Stereo
Codec ID : 55
Codec ID/Hint : MP3
Duration : 41mn 33s
Bit rate mode : Constant
Bit rate : 128 Kbps
Channel(s) : 2 channels
Sampling rate : 48.0 KHz
Compression mode : Lossy
Stream size : 38.0 MiB (7%)
Alignment : Aligned on interleaves
Interleave, duration : 33 ms (1.00 video frame)
Interleave, preload duration : 504 ms
Writing library : LAME3.99r
Encoding settings : -m j -V 4 -q 0 -lowpass 17 -b 128

Страна: США
Студия: FoxLife
Продолжительность: ~00:49:20, ~01:20:00
Перевод: Профессиональный (многоголосый закадровый) - FoxLife

Файл
Кодек: XviD
Качество: HDTVRip
Видео: 720x400 (1.80:1), 29.970 fps, XviD build 64 ~1571 kbps avg, 0.18 bit/pixel
Звук:
Аудио #1: 48 kHz, MPEG Layer 3, 2 ch, ~128.00 kbps avg | FoxLife |
Аудио #2: 48 kHz, MPEG Layer 3, 2 ch, ~128.00 kbps avg | Оригинал |
Субтитры: нет

Семпл




   Похожие торренты   Торрент   Размер 
В этой теме нет новых непрочитанных сообщений. Х-Фактор США / X Factor USA [02х01-02 из 27] (2012) HDTV 720p | FoxLife

3 | 6

4.44 ГБ

В этой теме нет новых непрочитанных сообщений. Х-Фактор / The X Factor UA [01] (04.09.2010) SATRip

0 | 4

1.73 ГБ

В этой теме нет новых непрочитанных сообщений. Х-Фактор / The X Factor UA [07] (16.10.2010) IPTVRip

0 | 2

2 ГБ

В этой теме нет новых непрочитанных сообщений. Х-Фактор / The X Factor UA [09] (30.10.2010) SATRip

0 | 2

3.72 ГБ

В этой теме нет новых непрочитанных сообщений. Х-Фактор / The X Factor UA [06] (09.10.2010) SATRip

0 | 2

1.55 ГБ

В этой теме нет новых непрочитанных сообщений. Х-Фактор / The X Factor UA [12] (20.11.2010) SATRip

0 | 2

2.44 ГБ

В этой теме нет новых непрочитанных сообщений. Х-Фактор / The X Factor UA [18] (08.01.2011) Суперфинал | SATRip

0 | 4

3.59 ГБ




Вы не можете начинать темы
Вы не можете отвечать на сообщения
Вы не можете редактировать свои сообщения
Вы не можете удалять свои сообщения
Вы не можете добавлять вложения

Перейти:  
Для Мосгорсуда, Роскомнадзора и рекламодателей: mosgorsud-torrent[собачка]yandex.ru
 Вход
ppkBB3cker v.2 © 2008-2014 @ PPK
[ Time : 0.046s | 16 Queries | GZIP : Off ]

Торрент трекер RUTOR.IN, Не можете зайти на rutor.org? Какой новый адрес рутор? Какое зеркало рутор? Не работает rutor.org и зеркала? Тогда наш торрент специально для вас. Rutor.in неофициальное зеркало rutor. В случае если у Вас заблокирован rutor или вдруг Вы не можете на него зайти, то Вы без труда сможете скачать бесплатно и без рекламы последние новинки кино, игр, сериалов и прочего у нас, на Rutor.in. Не нужно использовать прокси, чтобы зайти на рутор, достаточно воспользоваться нашим ресурсом. Все новые фильмы, игры, сериалы, книги и музыка за 2013 и 2014 годы через торрент бесплатно. Скачивайте фильмы в хорошем качестве, игры для пк, xbox, playstation без регистрации. У нас вы найдете новые Зарубежные сериалы и Русские сериалы 2013, 2014, 2015 годов. Оставайтесь с нами, качайте любимые фильмы, игры, сериалы, книги и музыку.