img image001 image001 image001 image001 image001 image001 image001 image001 image001 image001 image001 image001 image001 image001 image001

Planets Sun Sun Sun
Статистика раздачи
Автор: Nickolas3434 | Размер: 297.7 МБ | Добавлен: 11 мар 2014
Раздают: 211    Качают: 34
Скачать торрент
Скачать торрент
Описание торрента

СообщениеДобавлено: 11 мар 2014 

Исполнитель: SEREBRO

Альбом: Мало Тебя

Год выпуска: 2013
Жанр: Pop
Продолжительность: 00:03:43.720 (5593 frames)




В ролях: Ольга Серябкина, Елена Темникова и Дарья Шашина.




Описание: «SEREBRO» — российская женская поп-группа, образованная в 2006 году российским музыкальным продюсером Максимом Фадеевым



Качество: HDTV 720
Формат: MKV
Видео кодек: X264
Аудио кодек: AC3
Видео: 1280 x 632 (2.025), 25,000 fps, AVC High@L4.1, 10,8 Мбит/сек avg, 0.533 bit/pixel
Аудио: 48 kHz, AC3 Dolby Digital, 2/0 (L,R) ch, ~384 kbps


Код:
Общее
Уникальный идентификатор                 : 234652191539308188558086481777656705345 (0xB0885E43AD3B534AB2BA699E3A3DB141)
Полное имя                               : D:Рипы выкладка [Deadmauvlad]Рипы готовыеSerebro.-.Malo.Tebya.(2013).HDTV.720.Deadmauvlad.mkv
Формат                                   : Matroska
Версия формата                           : Version 4 / Version 2
Размер файла                             : 298 Мбайт
Продолжительность                        : 3 м. 43 с.
Общий поток                              : 11,2 Мбит/сек
Дата кодирования                         : UTC 2014-02-21 11:03:57
Программа кодирования                    : mkvmerge v6.5.0 ('Isn't she lovely') built on Oct 20 2013 12:50:05
Библиотека кодирования                   : libebml v1.3.0 + libmatroska v1.4.1

Видео
Идентификатор                            : 1
Формат                                   : AVC
Формат/Информация                        : Advanced Video Codec
Профиль формата                          : High@L4.1
Параметр CABAC формата                   : Да
Параметр ReFrames формата                : 3 кадра
Идентификатор кодека                     : V_MPEG4/ISO/AVC
Продолжительность                        : 3 м. 43 с.
Битрейт                                  : 10,8 Мбит/сек
Ширина                                   : 1280 пикселей
Высота                                   : 632 пикселя
Соотношение сторон                       : 2,025
Режим частоты кадров                     : Постоянный
Частота кадров                           : 25,000 кадров/сек
Цветовое пространство                    : YUV
Субдискретизация насыщенности            : 4:2:0
Битовая глубина                          : 8 бит
Тип развёртки                            : Прогрессивная
Бит/(Пиксели*Кадры)                      : 0.533
Размер потока                            : 282 Мбайт (95%)
Библиотека кодирования                   : x264 core 130 r2273 b3065e6
Настройки программы                      : cabac=1 / ref=3 / deblock=1:-1:-1 / analyse=0x3:0x113 / me=hex / subme=7 / psy=1 / psy_rd=1.00:0.15 / mixed_ref=1 / me_range=16 / chroma_me=1 / trellis=1 / 8x8dct=1 / cqm=0 / deadzone=21,11 / fast_pskip=1 / chroma_qp_offset=-3 / threads=3 / lookahead_threads=1 / sliced_threads=0 / nr=0 / decimate=1 / interlaced=0 / bluray_compat=1 / constrained_intra=0 / bframes=3 / b_pyramid=1 / b_adapt=2 / b_bias=0 / direct=1 / weightb=1 / open_gop=0 / weightp=1 / keyint=250 / keyint_min=1 / scenecut=40 / intra_refresh=0 / rc_lookahead=40 / rc=2pass / mbtree=1 / bitrate=10785 / ratetol=1.0 / qcomp=0.60 / qpmin=0 / qpmax=69 / qpstep=4 / cplxblur=20.0 / qblur=0.5 / ip_ratio=1.40 / aq=1:1.00
Default                                  : Да
Forced                                   : Нет
Основные цвета                           : BT.709
Характеристики трансфера                 : BT.709
Коэффициенты матрицы                     : BT.709

Аудио
Идентификатор                            : 2
Формат                                   : AC-3
Формат/Информация                        : Audio Coding 3
Расширение режима                        : CM (complete main)
Параметр Endianness формата              : Big
Идентификатор кодека                     : A_AC3
Продолжительность                        : 3 м. 43 с.
Вид битрейта                             : Постоянный
Битрейт                                  : 384 Кбит/сек
Каналы                                   : 2 канала
Расположение каналов                     : Front: L R
Частота                                  : 44,1 КГц
Битовая глубина                          : 16 бит
Метод сжатия                             : С потерями
Размер потока                            : 10,2 Мбайт (3%)
Заголовок                                : Serebro.-.Malo.Tebya.(2013).HDTV.720.Deadmauvlad
Язык                                     : Russian
Default                                  : Да
Forced                                   : Нет






Rip Deadmauvlad



   Похожие торренты   Торрент   Размер 
В этой теме нет новых непрочитанных сообщений. Serebro - Я тебя не отдам (2014) WEB-DL 720 от Deadmauvlad

218 | 16

47.99 МБ

В этой теме нет новых непрочитанных сообщений. Убийства в Сен-Мало / Meurtres à Saint-Malo (2013) HDTV 1080i | P

160 | 47

4.51 ГБ

В этой теме нет новых непрочитанных сообщений. Serebro (Серебро) - Дискография (2007-2013) MP3

345 | 44

750.39 МБ

В этой теме нет новых непрочитанных сообщений. Avicii - Wake Me Up [клип] (2013) HDTV 1080i от Deadmauvlad

29 | 5

152.06 МБ

В этой теме нет новых непрочитанных сообщений. Убийства в Сен-Мало / Meurtres à Saint-Malo (2013) HDTVRip-AVC | P

64 | 12

1.37 ГБ

В этой теме нет новых непрочитанных сообщений. Serebro - Сила трёх (2016) MP3

548 | 33

139.56 МБ

В этой теме нет новых непрочитанных сообщений. Serebro - Не надо больнее (2015) MP3

0 | 392

106.83 МБ




Вы не можете начинать темы
Вы не можете отвечать на сообщения
Вы не можете редактировать свои сообщения
Вы не можете удалять свои сообщения
Вы не можете добавлять вложения

Перейти:  
Для Мосгорсуда, Роскомнадзора и рекламодателей: mosgorsud-torrent[собачка]yandex.ru
 Вход
ppkBB3cker v.2 © 2008-2014 @ PPK
[ Time : 7.357s | 15 Queries | GZIP : Off ]

Торрент трекер RUTOR.IN, Не можете зайти на rutor.org? Какой новый адрес рутор? Какое зеркало рутор? Не работает rutor.org и зеркала? Тогда наш торрент специально для вас. Rutor.in неофициальное зеркало rutor. В случае если у Вас заблокирован rutor или вдруг Вы не можете на него зайти, то Вы без труда сможете скачать бесплатно и без рекламы последние новинки кино, игр, сериалов и прочего у нас, на Rutor.in. Не нужно использовать прокси, чтобы зайти на рутор, достаточно воспользоваться нашим ресурсом. Все новые фильмы, игры, сериалы, книги и музыка за 2013 и 2014 годы через торрент бесплатно. Скачивайте фильмы в хорошем качестве, игры для пк, xbox, playstation без регистрации. У нас вы найдете новые Зарубежные сериалы и Русские сериалы 2013, 2014, 2015 годов. Оставайтесь с нами, качайте любимые фильмы, игры, сериалы, книги и музыку.