img image001 image001 image001 image001 image001 image001 image001 image001 image001 image001 image001 image001 image001 image001 image001

Planets Sun Sun Sun
Статистика раздачи
Автор: Nickolas3434 | Размер: 932.4 МБ | Добавлен: 22 мар 2014
Раздают: 252    Качают: 81
Скачать торрент
Скачать торрент
Описание торрента

СообщениеДобавлено: 22 мар 2014 


Информация
Название: Воскресный вечер с Владимиром Соловьевым
Год выпуска: 2014
Жанр: Телепередача
Ведущий: Владимир Соловьев


Описание:
"Мы ставили задачу сделать программу для умного, неравнодушного зрителя, которая позволит обсуждать актуальные проблемы в разных форматах: от интервью "один на один" до "круглого стола". Надеемся, она будет такой же острой, как политическое ток-шоу "Поединок". Но если в "Поединке" сталкиваются две полярные точки зрения, то здесь мы намерены представить более широкий спектр мнений: ведь в обществе обсуждается множество тем, которые вызывают не только однозначные реакции", - сказал автор проекта Владимир Соловьев.


Продолжительность: ~ 01:05:04
Выпущено:
Перевод: Не требуется
Язык: Русский
Автор рипа: -=DeMoH=-
Файл
Формат: AVI
Качество: SATRip
Видео: DivX, ~1800 kb/s, 720 x 448
Аудио: MP3, 2 ch, 192 Кбит/с

Формат : AVI
Формат/Информация : Audio Video Interleave
Размер файла : 932 Мбайт
Продолжительность : 1 ч. 5 м.
Общий поток : 2003 Кбит/сек
Библиотека кодирования : VirtualDub build 35491/release
Видео
Идентификатор : 0
Формат : MPEG-4 Visual
Параметр BVOP формата : 1
Параметр QPel формата : Нет
Параметр GMC формата : Без точки перехода
Параметр матрицы формата : Default (H.263)
Режим смешивания : Сжатый битовый поток
Идентификатор кодека : DX50
Идентификатор кодека/Подсказка : DivX 5
Продолжительность : 1 ч. 5 м.
Битрейт : 1802 Кбит/сек
Ширина : 720 пикселей
Высота : 448 пикселей
Соотношение сторон : 1,607
Частота кадров : 25,000 кадров/сек
Цветовое пространство : YUV
Субдискретизация насыщенности : 4:2:0
Битовая глубина : 8 бит
Тип развёртки : Прогрессивная
Метод сжатия : С потерями
Бит/(Пиксели*Кадры) : 0.223
Размер потока : 839 Мбайт (90%)
Библиотека кодирования : DivX 6.8.5 (UTC 2009-08-20)
Аудио
Идентификатор : 1
Формат : MPEG Audio
Версия формата : Version 1
Профиль формата : Layer 3
Режим : Joint stereo
Расширение режима : MS Stereo
Идентификатор кодека : 55
Идентификатор кодека/Подсказка : MP3
Продолжительность : 1 ч. 5 м.
Вид битрейта : Постоянный
Битрейт : 192 Кбит/сек
Каналы : 2 канала
Частота : 48,0 КГц
Метод сжатия : С потерями
Размер потока : 89,4 Мбайт (10%)
Выравнивание : Разделение по промежуткам
Продолжительность промежутка : 40 мс. (1,00 видеокадр)
Время предзагрузки промежутка : 500 мс.
Библиотека кодирования : LAME3.98.2ЄЄЄЄЄЄЄЄЄЄ






   Похожие торренты   Торрент   Размер 
В этой теме нет новых непрочитанных сообщений. Воскресный вечер с Владимиром Соловьевым. Спецвыпуск. Евромайдан [Эфир от 29.01] (2014) SATRip от РиперАМ

30 | 5

848.44 МБ

В этой теме нет новых непрочитанных сообщений. Воскресный вечер с Владимиром Соловьевым. Спецвыпуск. Евромайдан [Эфир от 28.01] (2014) SATRip от РиперАМ

12 | 2

902.27 МБ

В этой теме нет новых непрочитанных сообщений. Воскресный вечер с Владимиром Соловьевым. Спецвыпуск [Эфир от 2014.02.28] (2014) DVB от Files-x

203 | 33

1.31 ГБ

В этой теме нет новых непрочитанных сообщений. Воскресный вечер с Владимиром Соловьевым [28.03] (2014) SATRip

283 | 87

1.76 ГБ

В этой теме нет новых непрочитанных сообщений. Воскресный вечер с Владимиром Соловьевым [Эфир от 06.04] (2014) SATRip от РиперАМ

111 | 108

1.31 ГБ

В этой теме нет новых непрочитанных сообщений. Воскресный вечер с Владимиром Соловьевым [Эфир от 02.02] (2014) SATRip от РиперАМ

23 | 2

1.83 ГБ

В этой теме нет новых непрочитанных сообщений. Воскресный вечер с Владимиром Соловьевым. [Эфир от 30.03] (2014) SATRip от РиперАМ

512 | 322

1.58 ГБ




Вы не можете начинать темы
Вы не можете отвечать на сообщения
Вы не можете редактировать свои сообщения
Вы не можете удалять свои сообщения
Вы не можете добавлять вложения

Перейти:  
Для Мосгорсуда, Роскомнадзора и рекламодателей: mosgorsud-torrent[собачка]yandex.ru
 Вход
ppkBB3cker v.2 © 2008-2014 @ PPK
[ Time : 0.032s | 15 Queries | GZIP : Off ]

Торрент трекер RUTOR.IN, Не можете зайти на rutor.org? Какой новый адрес рутор? Какое зеркало рутор? Не работает rutor.org и зеркала? Тогда наш торрент специально для вас. Rutor.in неофициальное зеркало rutor. В случае если у Вас заблокирован rutor или вдруг Вы не можете на него зайти, то Вы без труда сможете скачать бесплатно и без рекламы последние новинки кино, игр, сериалов и прочего у нас, на Rutor.in. Не нужно использовать прокси, чтобы зайти на рутор, достаточно воспользоваться нашим ресурсом. Все новые фильмы, игры, сериалы, книги и музыка за 2013 и 2014 годы через торрент бесплатно. Скачивайте фильмы в хорошем качестве, игры для пк, xbox, playstation без регистрации. У нас вы найдете новые Зарубежные сериалы и Русские сериалы 2013, 2014, 2015 годов. Оставайтесь с нами, качайте любимые фильмы, игры, сериалы, книги и музыку.
cron